Dual Audios Dual Audios HDRip 1080p 720p

Area 51 2015 720p WEB-HD x264 Dual Audio[Hindi DD 5.1][English DD 5.1] – Hon3y ~2.86GB DOWNLOAD

Area 51 (2015)
91 min|Horror, Sci-Fi, Thriller|May 15, 2015
4.2Rating: 4.2 / 10 from 9,192 users
Three young conspiracy theorists attempt to uncover the mysteries of Area 51, the government's secret location rumored to have hosted encounters with alien beings. What they find at this hidden facility exposes unimaginable secrets.
Poster
Area 51 2015 720p WEB-HD x264 Dual Audio[Hindi DD 5.1][English DD 5.1] – Hon3y ~2.86GB DOWNLOAD
General
Format                                   : Matroska
Format version                           : Version 4 / Version 2
File size                                : 2.86 GiB
Duration                                 : 1h 30mn
Overall bit rate                         : 4 512 Kbps
Movie name                               : Hon3yHD

Video
ID                                       : 1
Format                                   : AVC
Format/Info                              : Advanced Video Codec
Format profile                           : [email protected]
Format settings, CABAC                   : No
Format settings, ReFrames                : 2 frames
Codec ID                                 : V_MPEG4/ISO/AVC
Duration                                 : 1h 30mn
Bit rate                                 : 3 814 Kbps
Width                                    : 1 280 pixels
Height                                   : 718 pixels
Display aspect ratio                     : 16:9
Frame rate mode                          : Constant
Frame rate                               : 23.976 fps
Color space                              : YUV
Chroma subsampling                       : 4:2:0
Bit depth                                : 8 bits
Scan type                                : Progressive
Bits/(Pixel*Frame)                       : 0.173
Stream size                              : 2.42 GiB (85%)
Title                                    : W3apoN-X…Hon3yHD

5.1 Hindi Audi Credits: GPSOFT – Thank u bro

Audio #1
ID                                       : 2
Format                                   : AC-3
Format/Info                              : Audio Coding 3
Mode extension                           : CM (complete main)
Format settings, Endianness              : Big
Codec ID                                 : A_AC3
Duration                                 : 1h 30mn
Bit rate mode                            : Constant
Bit rate                                 : 384 Kbps
Channel(s)                               : 6 channels
Channel positions                        : Front: L C R, Side: L R, LFE
Sampling rate                            : 48.0 KHz
Bit depth                                : 16 bits
Compression mode                         : Lossy
Stream size                              : 250 MiB (9%)
Title                                    : हिन्दी [Hindi] Dolby Digital 5.1 384 Kbps—W3apoN-X…Hon3yHD
Language                                 : Hindi
Default                                  : Yes
Forced                                   : Yes

Audio #2
ID                                       : 3
Format                                   : AC-3
Format/Info                              : Audio Coding 3
Mode extension                           : CM (complete main)
Format settings, Endianness              : Big
Codec ID                                 : A_AC3
Duration                                 : 1h 30mn
Bit rate mode                            : Constant
Bit rate                                 : 224 Kbps
Channel(s)                               : 6 channels
Channel positions                        : Front: L C R, Side: L R, LFE
Sampling rate                            : 48.0 KHz
Bit depth                                : 16 bits
Compression mode                         : Lossy
Stream size                              : 146 MiB (5%)
Title                                    : English Dolby Digital 5.1 224 Kbps—W3apoN-X…Hon3yHD
Language                                 : English
Default                                  : No
Forced                                   : No

Text #1
ID                                       : 4
Format                                   : PGS
Codec ID                                 : S_HDMV/PGS
Codec ID/Info                            : Picture based subtitle format used on BDs/HD-DVDs
Title                                    : Hon3yHD
Default                                  : No
Forced                                   : Yes

Text #2
ID                                       : 5
Format                                   : UTF-8
Codec ID                                 : S_TEXT/UTF8
Codec ID/Info                            : UTF-8 Plain Text
Title                                    : English—W3apoN-X…Hon3yHD
Language                                 : English
Default                                  : No
Forced                                   : No

Menu
00:00:00.000                             : :Chapter 1
00:08:47.000                             : :Chapter 2
00:16:48.000                             : :Chapter 3
00:24:20.000                             : :Chapter 4
00:33:01.000                             : :Chapter 5
00:40:37.000                             : :Chapter 6
00:45:18.000                             : :Chapter 7
00:54:20.000                             : :Chapter 8
01:01:55.000                             : :Chapter 9
01:10:23.000                             : :Chapter 10
01:18:04.000                             : :Chapter 11
01:26:11.000                             : :Chapter 12