Hindi Tv Show

Arrow S01E010 720p Dual Audio Hindi-Eng BluRay x264-[Team EDM]~1.37GB

Burned (2013)
45 min|Action, Adventure, Crime, Drama, Mystery, Sci-Fi|January 16, 2013
8.0Rating: 8.0 / 10 from 3,351 users
Oliver's confidence is shaken after being beaten by the Dark Archer and he takes a break from being Arrow. However, when Laurel calls Arrow for help investigating a firefighter's suspicious...

Arrow S01E010 720p Dual Audio Hindi-Eng BluRay x264[Team EDM]

FIRST ON NET

General
Format                                   : Matroska
Format version                           : Version 4 / Version 2
File size                                : 1.35 GiB
Duration                                 : 42 min 31 s
Overall bit rate                         : 4 532 kb/s
Encoded date                             : UTC 2017-02-19 12:35:54
Writing application                      : mkvmerge v9.7.1 (‘Pandemonium’) 64bit
Writing library                          : libebml v1.3.4 + libmatroska v1.4.5

Video
ID                                       : 1
Format                                   : AVC
Format/Info                              : Advanced Video Codec
Format profile                           : [email protected]
Format settings, CABAC                   : No
Format settings, ReFrames                : 2 frames
Codec ID                                 : V_MPEG4/ISO/AVC
Duration                                 : 42 min 31 s
Bit rate                                 : 3 890 kb/s
Width                                    : 1 280 pixels
Height                                   : 720 pixels
Display aspect ratio                     : 16:9
Frame rate mode                          : Constant
Frame rate                               : 23.976 (23976/1000) FPS
Color space                              : YUV
Chroma subsampling                       : 4:2:0
Bit depth                                : 8 bits
Scan type                                : Progressive
Bits/(Pixel*Frame)                       : 0.176
Stream size                              : 1.16 GiB (86%)
Language                                 : English
Default                                  : Yes
Forced                                   : No
Color range                              : Limited
Color primaries                          : BT.709
Transfer characteristics                 : BT.709
Matrix coefficients                      : BT.709

Audio #1
ID                                       : 2
Format                                   : AC-3
Format/Info                              : Audio Coding 3
Mode extension                           : CM (complete main)
Format settings, Endianness              : Big
Codec ID                                 : A_AC3
Duration                                 : 42 min 31 s
Bit rate mode                            : Constant
Bit rate                                 : 384 kb/s
Channel(s)                               : 6 channels
Channel positions                        : Front: L C R, Side: L R, LFE
Sampling rate                            : 48.0 kHz
Frame rate                               : 31.250 FPS (1536 spf)
Bit depth                                : 16 bits
Compression mode                         : Lossy
Stream size                              : 117 MiB (8%)
Language                                 : English
Default                                  : No
Forced                                   : No

Audio #2
ID                                       : 3
Format                                   : MPEG Audio
Format version                           : Version 1
Format profile                           : Layer 3
Mode                                     : Joint stereo
Mode extension                           : MS Stereo
Codec ID                                 : A_MPEG/L3
Codec ID/Hint                            : MP3
Duration                                 : 42 min 31 s
Bit rate mode                            : Constant
Bit rate                                 : 256 kb/s
Channel(s)                               : 2 channels
Sampling rate                            : 44.1 kHz
Frame rate                               : 38.281 FPS (1152 spf)
Compression mode                         : Lossy
Stream size                              : 77.9 MiB (6%)
Writing library                          : LAME3.98.2
Default                                  : Yes
Forced                                   : Yes

Episode 09 Not available in Urdu/Hindi

BluRay on Request

This is Urdu(PAK Dubbed) Audio
Audio Source-AHMED-MAHER-Thanks
Take It Or Leave It

Seeding may be slow

Stay toon With Us For More Exclusive Release





d

SAMPLE

TORRENT

GOOGLE DRIVE

Filescdn

UploadRocket

BDupload

UploadMor

UsersCloud

Downace

ClicknUpload

Uptobox

Zag

cft-facebook-group