Hindi Tv Show

Arrow S01E011 720p Dual Audio Hindi-Eng BluRay x264[Team EDM]~1.33GB

Trust But Verify (2013)
45 min|Action, Adventure, Crime, Drama, Mystery, Sci-Fi|January 23, 2013
8.3Rating: 8.3 / 10 from 3,200 users
After a string of violent armored car robberies, Oliver suspects that Ted Gaynor of Black Hawk Security is the mastermind. His name is also on the list. It leads to a major disagreement ...

Poster

Arrow S01E011 720p Dual Audio Hindi-Eng BluRay x264[Team EDM]

FIRST ON NET

General
Format                                   : Matroska
Format version                           : Version 4 / Version 2
File size                                : 1.34 GiB
Duration                                 : 42 min 33 s
Overall bit rate                         : 4 492 kb/s
Encoded date                             : UTC 2017-02-27 15:22:19
Writing application                      : mkvmerge v9.7.1 (‘Pandemonium’) 64bit
Writing library                          : libebml v1.3.4 + libmatroska v1.4.5

Video
ID                                       : 1
Format                                   : AVC
Format/Info                              : Advanced Video Codec
Format profile                           : [email protected]
Format settings, CABAC                   : No
Format settings, ReFrames                : 2 frames
Codec ID                                 : V_MPEG4/ISO/AVC
Duration                                 : 42 min 33 s
Bit rate                                 : 3 978 kb/s
Width                                    : 1 280 pixels
Height                                   : 720 pixels
Display aspect ratio                     : 16:9
Frame rate mode                          : Constant
Frame rate                               : 23.976 (23976/1000) FPS
Color space                              : YUV
Chroma subsampling                       : 4:2:0
Bit depth                                : 8 bits
Scan type                                : Progressive
Bits/(Pixel*Frame)                       : 0.180
Stream size                              : 1.18 GiB (89%)
Language                                 : English
Default                                  : Yes
Forced                                   : No
Color range                              : Limited
Color primaries                          : BT.709
Transfer characteristics                 : BT.709
Matrix coefficients                      : BT.709

Audio #1
ID                                       : 2
Format                                   : AC-3
Format/Info                              : Audio Coding 3
Mode extension                           : CM (complete main)
Format settings, Endianness              : Big
Codec ID                                 : A_AC3
Duration                                 : 42 min 33 s
Bit rate mode                            : Constant
Bit rate                                 : 384 kb/s
Channel(s)                               : 6 channels
Channel positions                        : Front: L C R, Side: L R, LFE
Sampling rate                            : 48.0 kHz
Frame rate                               : 31.250 FPS (1536 spf)
Bit depth                                : 16 bits
Compression mode                         : Lossy
Stream size                              : 117 MiB (9%)
Language                                 : English
Default                                  : No
Forced                                   : No

Audio #2
ID                                       : 3
Format                                   : MPEG Audio
Format version                           : Version 1
Format profile                           : Layer 3
Mode                                     : Joint stereo
Mode extension                           : MS Stereo
Codec ID                                 : A_MPEG/L3
Codec ID/Hint                            : MP3
Duration                                 : 42 min 33 s
Bit rate mode                            : Constant
Bit rate                                 : 128 kb/s
Channel(s)                               : 2 channels
Sampling rate                            : 44.1 kHz
Frame rate                               : 38.281 FPS (1152 spf)
Compression mode                         : Lossy
Stream size                              : 39.0 MiB (3%)
Writing library                          : LAME3.98.2
Language                                 : Hindi
Default                                  : No
Forced                                   : Yes

BluRay on Request

This is Urdu(PAK Dubbed) Audio
Audio Source-AHMED-MAHER-Thanks
Take It Or Leave It

Seeding may be slow

Stay toon With Us For More Exclusive Release

ss




 d

TORRENT

Filescdn

UploadMor

UsersCloud

Downace

ClicknUpload

Uptobox

Zag

cft-facebook-group