Bollwood Pre-Releases (Latest) Bollywood

Baahubali 2 2017 1080p DVDSCR HEVC x265 AC3 5.1 Multi Audio [Hindi+Telugu+Tamil+Malayalam] MultiSub ~5.94GB DOWNLOAD

Baahubali 2: La conclusion (2017)
167 min|Action, Adventure, Drama, Fantasy|April 28, 2017
8.8Rating: 8.8 / 10 from 41,634 users
When Shiva, the son of Bahubali, learns about his heritage, he begins to look for answers. His story is juxtaposed with past events that unfolded in the Mahishmati Kingdom.
Baahubali 2 2017 1080p DVDSCR HEVC x265 AC3 5.1 Multi Audio [Hindi+Telugu+Tamil+Malayalam] MultiSub ~5.94GB DOWNLOAD
 Source :- DUS
Format : Matroska
Format version : Version 4 / Version 2
File size : 5.94 GiB
Duration : 2 h 42 min
Overall bit rate : 5 222 kb/s
Movie name : Ranvijay1234

Video
ID : 1
Format : HEVC
Format/Info : High Efficiency Video Coding
Format profile : [email protected]@Main
Codec ID : V_MPEGH/ISO/HEVC
Duration : 2 h 42 min
Bit rate : 3 986 kb/s
Width : 1 920 pixels
Height : 816 pixels
Display aspect ratio : 2.35:1
Frame rate mode : Constant
Frame rate : 25.000 FPS
Color space : YUV
Chroma subsampling : 4:2:0
Bit depth : 8 bits
Bits/(Pixel*Frame) : 0.102
Stream size : 4.54 GiB (76%)
Title : Ranvijay1234
Default : Yes
Forced : No

Audio #1
ID : 3
Format : AC-3
Format/Info : Audio Coding 3
Mode extension : CM (complete main)
Format settings, Endianness : Big
Codec ID : A_AC3
Duration : 2 h 42 min
Bit rate mode : Constant
Bit rate : 384 kb/s
Channel(s) : 6 channels
Channel positions : Front: L C R, Side: L R, LFE
Sampling rate : 48.0 kHz
Frame rate : 31.250 FPS (1536 spf)
Bit depth : 16 bits
Compression mode : Lossy
Delay relative to video : -46 ms
Stream size : 448 MiB (7%)
Language : Hindi
Default : Yes
Forced : No

Audio #2
ID : 4
Format : AC-3
Format/Info : Audio Coding 3
Mode extension : CM (complete main)
Format settings, Endianness : Big
Codec ID : A_AC3
Duration : 2 h 42 min
Bit rate mode : Constant
Bit rate : 256 kb/s
Channel(s) : 6 channels
Channel positions : Front: L C R, Side: L R, LFE
Sampling rate : 48.0 kHz
Frame rate : 31.250 FPS (1536 spf)
Bit depth : 16 bits
Compression mode : Lossy
Delay relative to video : -46 ms
Stream size : 298 MiB (5%)
Title : Telugu
Default : No
Forced : No

Audio #3
ID : 5
Format : AC-3
Format/Info : Audio Coding 3
Mode extension : CM (complete main)
Format settings, Endianness : Big
Codec ID : A_AC3
Duration : 2 h 42 min
Bit rate mode : Constant
Bit rate : 256 kb/s
Channel(s) : 6 channels
Channel positions : Front: L C R, Side: L R, LFE
Sampling rate : 48.0 kHz
Frame rate : 31.250 FPS (1536 spf)
Bit depth : 16 bits
Compression mode : Lossy
Delay relative to video : -46 ms
Stream size : 298 MiB (5%)
Title : Tamil
Default : No
Forced : No

Audio #4
ID : 6
Format : AC-3
Format/Info : Audio Coding 3
Mode extension : CM (complete main)
Format settings, Endianness : Big
Codec ID : A_AC3
Duration : 2 h 42 min
Bit rate mode : Constant
Bit rate : 256 kb/s
Channel(s) : 6 channels
Channel positions : Front: L C R, Side: L R, LFE
Sampling rate : 48.0 kHz
Frame rate : 31.250 FPS (1536 spf)
Bit depth : 16 bits
Compression mode : Lossy
Delay relative to video : -46 ms
Stream size : 298 MiB (5%)
Title : Malayalam
Language : Malay
Default : No
Forced : No

Text #1
ID : 7
Format : UTF-8
Codec ID : S_TEXT/UTF8
Codec ID/Info : UTF-8 Plain Text
Duration : 2 h 35 min
Bit rate : 14 b/s
Count of elements : 433
Stream size : 16.9 KiB (0%)
Title : Ranvijay1234
Language : English
Default : Yes
Forced : No

Text #2
ID : 8
Format : UTF-8
Codec ID : S_TEXT/UTF8
Codec ID/Info : UTF-8 Plain Text
Duration : 2 h 35 min
Bit rate : 17 b/s
Count of elements : 421
Stream size : 20.0 KiB (0%)
Title : Ranvijay1234
Language : French
Default : No
Forced : No

Text #3
ID : 9
Format : UTF-8
Codec ID : S_TEXT/UTF8
Codec ID/Info : UTF-8 Plain Text
Duration : 2 h 35 min
Bit rate : 16 b/s
Count of elements : 396
Stream size : 18.6 KiB (0%)
Title : Ranvijay1234
Language : Dutch
Default : No
Forced : No