Dual Audios Dual Audios BluRay 1080p 720p

Beauty And The Beast (2017) 1080p BDRip Dual Audio Org DD {Hindi+Eng 6ch} ~{DOOMSDAY} ~4.4GB DOWNLOAD

Beauty and the Beast (2017)
129 min|Family, Fantasy, Musical, Romance|March 17, 2017
7.5Rating: 7.5 / 10 from 126,489 users
An adaptation of the fairy tale about a monstrous-looking prince and a young woman who fall in love.
 

Beauty And The Beast (2017) 1080p BDRip Dual Audio Org DD {Hindi+Eng 6ch} ~{DOOMSDAY} ~4.4GB DOWNLOAD

Video

ID : 1
Format : AVC
Format/Info : Advanced Video Codec
Format profile : [email protected]
Format settings, CABAC : Yes
Format settings, ReFrames : 5 frames
Codec ID : V_MPEG4/ISO/AVC
Duration : 2 h 3 min
Bit rate mode : Variable
Bit rate : 3 789 kb/s
Maximum bit rate : 62.5 Mb/s
Width : 1 920 pixels
Height : 804 pixels
Display aspect ratio : 2.40:1
Frame rate mode : Constant
Frame rate : 25.000 FPS
Original frame rate : 23.976 (24000/1001) FPS
Color space : YUV
Chroma subsampling : 4:2:0
Bit depth : 8 bits
Scan type : Progressive
Bits/(Pixel*Frame) : 0.098
Stream size : 3.37 GiB (78%)
Title : Beauty.And.The.Beast.(2017).[email protected]}~-.
Language : English
Default : Yes
Forced : No

Audio #1
ID : 2
Format : AC-3
Format/Info : Audio Coding 3
Format settings, Endianness : Big
Codec ID : A_AC3
Duration : 2 h 3 min
Bit rate mode : Constant
Bit rate : 640 kb/s
Channel(s) : 6 channels
Channel positions : Front: L C R, Side: L R, LFE
Sampling rate : 48.0 kHz
Frame rate : 31.250 FPS (1536 spf)
Bit depth : 16 bits
Compression mode : Lossy
Stream size : 568 MiB (13%)
Title : RiPPER~ L3GEND~ ORG BD DOLBY DIGITAL [email protected]~
Language : English
Service kind : Complete Main
Default : No
Forced : No

Audio #2
ID : 3
Format : AC-3
Format/Info : Audio Coding 3
Format settings, Endianness : Big
Codec ID : A_AC3
Duration : 2 h 3 min
Bit rate mode : Constant
Bit rate : 384 kb/s
Channel(s) : 6 channels
Channel positions : Front: L C R, Side: L R, LFE
Sampling rate : 48.0 kHz
Frame rate : 31.250 FPS (1536 spf)
Bit depth : 16 bits
Compression mode : Lossy
Delay relative to video : 920 ms
Stream size : 341 MiB (8%)
Title : RiPPER~ L3GEND~ ORG DVD DOLBY DIGITAL [email protected]~
Language : Hindi
Service kind : Complete Main
Default : Yes
Forced : No

Text #1
ID : 4
Format : PGS
Muxing mode : zlib
Codec ID : S_HDMV/PGS
Codec ID/Info : Picture based subtitle format used on BDs/HD-DVDs
Title : L3GEND~ Presentation Graphics Subtitles~
Language : English
Default : Yes
Forced : No

ss
d

Repidgator
UptoBox