Bollwood Pre-Releases (Latest) Bollywood Bollywood 1CDRip

Begum Jaan (2017) – 1CD – DesiSCR-Rip – Hindi – x264 – MP3 – Mafiaking – M2Tv – 704 MB

Begum Jaan (2017)
128 min|Action, Drama|April 14, 2017
5.6Rating: 5.6 / 10 from 1,332 users
The story of eleven prostitutes who refuse to part ways with their brothel and each other during the partition between India and Pakistan.
T8UJSfu.jpg
Begum Jaan (2017) – 1CD – DesiSCR-Rip – Hindi – x264 – MP3 – Mafiaking – M2Tv

Ratings: 6.4/10

Genere: Action, Drama

General
Unique ID : 195229546950857263082783311805366269697 (0x92DFD7D222FC2FED8306DE0690A1F701)
Complete name : Begum Jaan (2017) – 1CD – Desi SCR-Rip – Hindi – x264 – MP3 – Mafiaking – M2Tv.mkv
Format : Matroska
Format version : Version 4 / Version 2
File size : 704 MiB
Duration : 2 h 8 min
Overall bit rate : 766 kb/s
Movie name : Begum Jaan (2017) – 1CD – Desi SCR-Rip – Hindi – x264 – MP3 – Mafiaking – M2Tv
Encoded date : UTC 2017-04-14 20:34:42
Writing application : mkvmerge v7.0.0 (‘Where We Going’) 32bit built on Jun 9 2014 15:08:34
Writing library : libebml v1.3.0 + libmatroska v1.4.1

Video
ID : 1
Format : AVC
Format/Info : Advanced Video Codec
Format profile : [email protected]
Format settings, CABAC : Yes
Format settings, ReFrames : 3 frames
Codec ID : V_MPEG4/ISO/AVC
Duration : 2 h 8 min
Bit rate : 685 kb/s
Width : 640 pixels
Height : 296 pixels
Display aspect ratio : 2.2:1
Frame rate mode : Constant
Frame rate : 29.970 (30000/1001) FPS
Color space : YUV
Chroma subsampling : 4:2:0
Bit depth : 8 bits
Scan type : Progressive
Bits/(Pixel*Frame) : 0.121
Stream size : 629 MiB (89%)
Title : Mafiaking
Language : Hindi
Default : Yes
Forced : No

Audio
ID : 2
Format : MPEG Audio
Format version : Version 1
Format profile : Layer 3
Mode : Joint stereo
Mode extension : MS Stereo
Codec ID : A_MPEG/L3
Codec ID/Hint : MP3
Duration : 2 h 8 min
Bit rate mode : Constant
Bit rate : 80.0 kb/s
Channel(s) : 2 channels
Sampling rate : 32.0 kHz
Frame rate : 27.778 FPS (1152 spf)
Compression mode : Lossy
Stream size : 73.6 MiB (10%)
Title : Mafiaking
Writing library : LAME3.99r
Language : Hindi
Default : Yes
Forced : No