Bollywood Bollywood HDRip 1080p 720p

Bewafaa 2005 Hindi HDRip 720p x264 AC3…Hon3y ~2.18GB DOWNLOAD

Bewafaa (2005)
149 min|Drama, Romance|February 25, 2005
4.5Rating: 4.5 / 10 from 1,923 users
Anjali, living in Canada with her parents, hides her relationship to the musician Raja from her parents. When her sister dies during the birth of twins, she abandons her love, marries the ...
Bewafaa 2005 Hindi HDRip 720p x264 AC3…Hon3y ~2.18GB DOWNLOAD

Video
ID : 1
Format : AVC
Format/Info : Advanced Video Codec
Format profile : [email protected]
Format settings, CABAC : Yes
Format settings, ReFrames : 12 frames
Codec ID : V_MPEG4/ISO/AVC
Duration : 2 h 29 min
Bit rate : 1 927 kb/s
Width : 1 280 pixels
Height : 544 pixels
Display aspect ratio : 2.35:1
Frame rate mode : Constant
Frame rate : 25.000 FPS
Color space : YUV
Chroma subsampling : 4:2:0
Bit depth : 8 bits
Scan type : Progressive
Bits/(Pixel*Frame) : 0.111
Stream size : 1.97 GiB (90%)
Title : Hon3y
Writing library : x264 core 133 r2334 a3ac64b
Language : English
Default : Yes
Forced : No
Color range : Limited
Color primaries : Generic film
Transfer characteristics : BT.709
Matrix coefficients : BT.709

Audio
ID : 2
Format : AC-3
Format/Info : Audio Coding 3
Format settings, Endianness : Big
Codec ID : A_AC3
Duration : 2 h 29 min
Bit rate mode : Constant
Bit rate : 160 kb/s
Channel(s) : 2 channels
Channel positions : Front: L R
Sampling rate : 44.1 kHz
Frame rate : 28.711 FPS (1536 spf)
Bit depth : 16 bits
Compression mode : Lossy
Delay relative to video : 4 ms
Stream size : 171 MiB (8%)
Title : Hon3y
Language : Hindi
Service kind : Complete Main
Default : Yes
Forced : No