Bollywood 1CDRip

Bhram An Illusion – 2008 Hindi DVD RIP [Team EDM]~574MB

Bhram: An Illusion (2008)
N/A|Drama, Mystery, Romance, Thriller|April 4, 2008
5.7Rating: 5.7 / 10 from 86 users
A substance-abusing model believes that her wealthy boyfriend's brother molested and killer her sister.

General
Format : MPEG-4
Format profile : Base Media
Codec ID : isom (isom/iso2/avc1/mp41)
File size : 574 MiB
Duration : 1 h 57 min
Overall bit rate mode : Variable
Overall bit rate : 683 kb/s
Encoded date : UTC 2015-07-18 02:11:36
Tagged date : UTC 2015-07-18 02:11:36

Video
ID : 1
Format : AVC
Format/Info : Advanced Video Codec
Format profile : [email protected]
Format settings, CABAC : Yes
Format settings, ReFrames : 3 frames
Codec ID : avc1
Codec ID/Info : Advanced Video Coding
Duration : 1 h 57 min
Bit rate : 554 kb/s
Width : 854 pixels
Height : 480 pixels
Display aspect ratio : 16:9
Frame rate mode : Constant
Frame rate : 25.000 FPS
Color space : YUV
Chroma subsampling : 4:2:0
Bit depth : 8 bits
Scan type : Progressive
Bits/(Pixel*Frame) : 0.054
Stream size : 466 MiB (81%)
Encoded date : UTC 2015-07-18 02:11:36
Tagged date : UTC 2015-07-18 02:11:36

Audio
ID : 2
Format : AAC
Format/Info : Advanced Audio Codec
Format profile : LC
Codec ID : 40
Duration : 1 h 57 min
Bit rate mode : Variable
Bit rate : 126 kb/s
Channel(s) : 2 channels
Channel positions : Front: L R
Sampling rate : 44.1 kHz
Frame rate : 43.066 FPS (1024 spf)
Compression mode : Lossy
Stream size : 106 MiB (18%)
Default : Yes
Alternate group : 1
Encoded date : UTC 2015-07-18 02:07:44
Tagged date : UTC 2015-07-18 02:07:44

To Join Our Whatsapp Group LINK

ss

d

Filescdn

OBOOM

UsersCloud

Downace

ClicknUpload

Uptobox

OpenLoad