Bollywood Bollywood DVDRip 1080p 720p Hollywood Hollywood DVDRip 1080p 720p Punjabi

Chaar Sahibzaade (2014) 720p DVDRip [Multi Audio] [DD 5.1] [Hindi English Punjabi] x264 – Team Telly ~2.9GB

Chaar Sahibzaade (2014)
135 min|Animation, History|November 7, 2014
8.4Rating: 8.4 / 10 from 7,192 users
The sacrifices of the four sons of Guru Gobind Singh ji (tenth guru of Sikhs) - Baba Ajit Singh ji, Baba Jujhar Singh ji, Baba Zorawar Singh ji and Baba Fateh Singh ji.
AVAjwEM.jpg
Chaar Sahibzaade (2014) 720p DVDRip [Multi Audio] [DD 5.1] [Hindi English Punjabi] x264 – Team Telly ~2.9GB
General
Complete name : Chaar Sahibzaade (2014) 720p DVDRip [Multi Audio] [ORG DD5.1] [Hindi English Punjabi] x264 – Team Telly.mkv
Format : Matroska
Format version : Version 4 / Version 2
File size : 2.93 GiB
Duration : 2h 7mn
Overall bit rate : 3 278 Kbps
Movie name : Encoded By Team TElly @ Secret Encoder :)
Video
ID : 1
Format : AVC
Format/Info : Advanced Video Codec
Format profile : [email protected]
Format settings, CABAC : Yes
Format settings, ReFrames : 8 frames
Codec ID : V_MPEG4/ISO/AVC
Duration : 2h 7mn
Bit rate : 1 931 Kbps
Width : 1 280 pixels
Height : 536 pixels
Display aspect ratio : 2.40:1
Frame rate mode : Constant
Frame rate : 25.000 fps
Color space : YUV
Chroma subsampling : 4:2:0
Bit depth : 8 bits
Scan type : Progressive
Bits/(Pixel*Frame) : 0.113
Stream size : 1.67 GiB (57%)
Title : Team Telly Secret Encoder
Writing library : x264 core 146 r2538 121396c
Default : Yes
Forced : No
Color primaries : Generic film
Transfer characteristics : BT.709
Matrix coefficients : BT.709

Audio #1
ID : 2
Format : AC-3
Format/Info : Audio Coding 3
Mode extension : CM (complete main)
Format settings, Endianness : Big
Codec ID : A_AC3
Duration : 2h 7mn
Bit rate mode : Constant
Bit rate : 448 Kbps
Channel(s) : 6 channels
Channel positions : Front: L C R, Side: L R, LFE
Sampling rate : 48.0 KHz
Bit depth : 16 bits
Compression mode : Lossy
Delay relative to video : 80ms
Stream size : 410 MiB (14%)
Title : DD 5.1 – Hindi
Language : Hindi
Default : Yes
Forced : No

Audio #2
ID : 3
Format : AC-3
Format/Info : Audio Coding 3
Mode extension : CM (complete main)
Format settings, Endianness : Big
Codec ID : A_AC3
Duration : 2h 7mn
Bit rate mode : Constant
Bit rate : 448 Kbps
Channel(s) : 6 channels
Channel positions : Front: L C R, Side: L R, LFE
Sampling rate : 48.0 KHz
Bit depth : 16 bits
Compression mode : Lossy
Delay relative to video : 80ms
Stream size : 410 MiB (14%)
Title : DD 5.1 – Pubjabi
Language : Panjabi
Default : No
Forced : No

Audio #3
ID : 4
Format : AC-3
Format/Info : Audio Coding 3
Mode extension : CM (complete main)
Format settings, Endianness : Big
Codec ID : A_AC3
Duration : 2h 7mn
Bit rate mode : Constant
Bit rate : 448 Kbps
Channel(s) : 6 channels
Channel positions : Front: L C R, Side: L R, LFE
Sampling rate : 48.0 KHz
Bit depth : 16 bits
Compression mode : Lossy
Delay relative to video : 80ms
Stream size : 410 MiB (14%)
Title : DD 5.1 – English
Language : Panjabi
Default : No
Forced : No

Text
ID : 5
Format : VobSub
Muxing mode : zlib
Codec ID : S_VOBSUB
Codec ID/Info : The same subtitle format used on DVDs
Title : English – PGS Subtitle
Language : English
Default : Yes
Forced : No