Bollywood Bollywood HDRip 1080p 720p Hollywood Hollywood HDRip 1080p 720p Other Indian Language Movies Punjabi

Chaar Sahibzaade (2014) [Multi Audio] [Hindi+English+Punjabi] Untouched 1080p WEB-HD Esub Hon3yHD ~3.82GB

Chaar Sahibzaade (2014)
135 min|Animation, History|November 7, 2014
8.4Rating: 8.4 / 10 from 7,192 users
The sacrifices of the four sons of Guru Gobind Singh ji (tenth guru of Sikhs) - Baba Ajit Singh ji, Baba Jujhar Singh ji, Baba Zorawar Singh ji and Baba Fateh Singh ji.
Poster
 Chaar Sahibzaade (2014) [Multi Audio] [Hindi+English+Punjabi] Untouched 1080p WEB-HD Esub Hon3yHD ~3.82GB
 Format                      : Matroska
Format version              : Version 4 / Version 2
File size                   : 3.82 GiB
Duration                    : 2h 7mn
Overall bit rate            : 4 271 KbpsVideo
ID                          : 1
Format                      : AVC
Format/Info                 : Advanced Video Codec
Format profile              : [email protected]
Format settings, CABAC      : Yes
Format settings, ReFrames   : 3 frames
Codec ID                    : V_MPEG4/ISO/AVC
Duration                    : 2h 7mn
Bit rate                    : 3 979 Kbps
Width                       : 1 920 pixels
Height                      : 808 pixels
Display aspect ratio        : 2.40:1
Frame rate mode             : Constant
Frame rate                  : 24.000 fps
Color space                 : YUV
Chroma subsampling          : 4:2:0
Bit depth                   : 8 bits
Scan type                   : Progressive
Bits/(Pixel*Frame)          : 0.107
Stream size                 : 3.56 GiB (93%)
Writing library             : Zencoder Video Encoding System
Default                     : Yes
Forced                      : No

Audio #1
ID                          : 2
Format                      : AAC
Format/Info                 : Advanced Audio Codec
Format profile              : LC
Codec ID                    : A_AAC
Duration                    : 2h 7mn
Bit rate                    : 127 Kbps
Channel(s)                  : 2 channels
Channel positions           : Front: L R
Sampling rate               : 44.1 KHz
Frame rate                  : 43.066 fps (1024 spf)
Compression mode            : Lossy
Delay relative to video     : -60ms
Stream size                 : 117 MiB (3%)
Default                     : Yes
Forced                      : No

Audio #2
ID                          : 3
Format                      : AAC
Format/Info                 : Advanced Audio Codec
Format profile              : LC
Codec ID                    : A_AAC
Duration                    : 2h 7mn
Bit rate                    : 80.0 Kbps
Channel(s)                  : 2 channels
Channel positions           : Front: L R
Sampling rate               : 48.0 KHz
Frame rate                  : 46.875 fps (1024 spf)
Compression mode            : Lossy
Delay relative to video     : -23ms
Stream size                 : 73.2 MiB (2%)
Title                       : DD 2.0 – Hindi
Language                    : Hindi
Default                     : No
Forced                      : No

Audio #3
ID                          : 4
Format                      : AAC
Format/Info                 : Advanced Audio Codec
Format profile              : LC
Codec ID                    : A_AAC
Duration                    : 2h 7mn
Bit rate                    : 80.0 Kbps
Channel(s)                  : 2 channels
Channel positions           : Front: L R
Sampling rate               : 48.0 KHz
Frame rate                  : 46.875 fps (1024 spf)
Compression mode            : Lossy
Delay relative to video     : -23ms
Stream size                 : 73.2 MiB (2%)
Title                       : DD 2.0 – English
Language                    : English
Default                     : No
Forced                      : No

Text
ID                          : 5
Format                      : VobSub
Muxing mode                 : zlib
Codec ID                    : S_VOBSUB
Codec ID/Info               : Picture based subtitle format used on DVDs
Duration                    : 2h 0mn
Bit rate                    : 1 124 bps
Count of elements           : 1334
Stream size                 : 993 KiB (0%)
Title                       : English Subs – PGD
Language                    : English
Default                     : No
Forced                      : No