Bollywood Bollywood 1CDRip Bollywood HDRip 1080p 720p

Dangal (2016) 1CD HDRip x264 MP4 AAC Sharmi ~700MB

Dangal (2016)
161 min|Action, Biography, Drama, Sport|December 21, 2016
8.8Rating: 8.8 / 10 from 52,655 users
Former wrestler Mahavir Singh Phogat and his two wrestler daughters struggle towards glory at the Commonwealth Games in the face of societal oppression.
 Dangal.jpg
 Dangal (2016) 1CD HDRip x264 MP4 AAC Sharmi ~700MB
Format : MPEG-4
File size : 704 MiB
Duration : 2 h 34 min
Overall bit rate : 637 kb/sVideo
ID : 1
Format : AVC
Format/Info : Advanced Video Codec
Format profile : [email protected]
Format settings, CABAC : Yes
Format settings, ReFrames : 8 frames
Codec ID : avc1
Codec ID/Info : Advanced Video Coding
Duration : 2 h 34 min
Bit rate : 550 kb/s
Width : 640 pixels
Height : 272 pixels
Display aspect ratio : 2.35:1
Frame rate mode : Constant
Frame rate : 25.000 FPS
Color space : YUV
Chroma subsampling : 4:2:0
Bit depth : 8 bits
Scan type : Progressive
Bits/(Pixel*Frame) : 0.126
Stream size : 606 MiB (86%)
Writing library : x264 core 148 r2744 b97ae06

Audio
ID : 2
Format : AAC
Format/Info : Advanced Audio Codec
Format profile : LC
Codec ID : 40
Duration : 2 h 34 min
Bit rate mode : Constant
Bit rate : 80.0 kb/s
Channel(s) : 2 channels
Channel positions : Front: L R
Sampling rate : 44.1 kHz
Frame rate : 43.066 FPS (1024 spf)
Compression mode : Lossy
Stream size : 88.4 MiB (13%)
Default : Yes
Alternate group : 1