Bollywood Bollywood BluRay 1080p 720p Other Indian Language Movies Tamil Telugu

Dangal (2016) BluRay 1080p x264 Multi Audio [Hindi+Tamil+Telugu+English(commentary)] DD 5.1 ESubs…Hon3y ~5.83GB DOWNLOAD

Dangal (2016) BluRay 1080p x264 Multi Audio [Hindi+Tamil+Telugu+English(commentary)] DD 5.1 ESubs…Hon3y ~5.83GB DOWNLOAD
General
Format                                   : Matroska
Format version                           : Version 4 / Version 2
File size                                : 5.83 GiB
Duration                                 : 2 h 41 min
Overall bit rate                         : 5 179 kb/s
Movie name                               : Dangal—[email protected]

Video
Format                                   : AVC
Format/Info                              : Advanced Video Codec
Format profile                           : [email protected]
Format settings, CABAC                   : Yes
Format settings, ReFrames                : 5 frames
Codec ID                                 : V_MPEG4/ISO/AVC
Duration                                 : 2 h 41 min
Bit rate                                 : 3 432 kb/s
Width                                    : 1 920 pixels
Height                                   : 800 pixels
Display aspect ratio                     : 2.40:1
Frame rate mode                          : Constant
Frame rate                               : 24.000 FPS
Color space                              : YUV
Chroma subsampling                       : 4:2:0
Bit depth                                : 8 bits
Scan type                                : Progressive
Bits/(Pixel*Frame)                       : 0.093
Stream size                              : 3.86 GiB (66%)
Title                                    : Dangal—[email protected]

Hindi Audio
Format                                   : AC-3
Format/Info                              : Audio Coding 3
Format settings, Endianness              : Big
Codec ID                                 : A_AC3
Duration                                 : 2 h 41 min
Bit rate mode                            : Constant
Bit rate                                 : 448 kb/s
Channel(s)                               : 6 channels
Channel positions                        : Front: L C R, Side: L R, LFE
Sampling rate                            : 48.0 kHz
Frame rate                               : 31.250 FPS (1536 spf)
Bit depth                                : 16 bits
Compression mode                         : Lossy
Stream size                              : 516 MiB (9%)
Title                                    : Hindi—[email protected]
Language                                 : Hindi
Service kind                             : Complete Main
Default                                  : Yes

Tamil Audio
Format                                   : AC-3
Format/Info                              : Audio Coding 3
Format settings, Endianness              : Big
Codec ID                                 : A_AC3
Duration                                 : 2 h 41 min
Bit rate mode                            : Constant
Bit rate                                 : 448 kb/s
Channel(s)                               : 6 channels
Channel positions                        : Front: L C R, Side: L R, LFE
Sampling rate                            : 48.0 kHz
Frame rate                               : 31.250 FPS (1536 spf)
Bit depth                                : 16 bits
Compression mode                         : Lossy
Stream size                              : 516 MiB (9%)
Title                                    : Tamil—[email protected]
Language                                 : Tamil
Service kind                             : Complete Main
Default                                  : No

Telugu Audio
Format                                   : AC-3
Format/Info                              : Audio Coding 3
Format settings, Endianness              : Big
Codec ID                                 : A_AC3
Duration                                 : 2 h 41 min
Bit rate mode                            : Constant
Bit rate                                 : 448 kb/s
Channel(s)                               : 6 channels
Channel positions                        : Front: L C R, Side: L R, LFE
Sampling rate                            : 48.0 kHz
Frame rate                               : 31.250 FPS (1536 spf)
Bit depth                                : 16 bits
Compression mode                         : Lossy
Stream size                              : 516 MiB (9%)
Title                                    : Telugu—[email protected]
Language                                 : Telugu
Service kind                             : Complete Main
Default                                  : No

English(commentary) Audio
Format                                   : AC-3
Format/Info                              : Audio Coding 3
Format settings, Endianness              : Big
Codec ID                                 : A_AC3
Duration                                 : 2 h 41 min
Bit rate mode                            : Constant
Bit rate                                 : 384 kb/s
Channel(s)                               : 6 channels
Channel positions                        : Front: L C R, Side: L R, LFE
Sampling rate                            : 48.0 kHz
Frame rate                               : 31.250 FPS (1536 spf)
Bit depth                                : 16 bits
Compression mode                         : Lossy
Stream size                              : 442 MiB (7%)
Title                                    : English(commentary)—[email protected]
Language                                 : English
Service kind                             : Complete Main
Default                                  : No

Subtitle
Format                                   : PGS
Muxing mode                              : zlib
Codec ID                                 : S_HDMV/PGS
Codec ID/Info                            : Picture based subtitle format used on BDs/HD-DVDs
Duration                                 : 2 h 33 min
Bit rate                                 : 17.7 kb/s
Count of elements                        : 3904
Stream size                              : 19.4 MiB (0%)
Title                                    : English PGS—[email protected]
Language                                 : English
Default                                  : Yes