Bollywood Bollywood BluRay 1080p 720p Other Indian Language Movies Tamil Telugu

Dangal (2016) BluRay 720p x264 Multi Audio [Hindi+Tamil+Telugu+English(commentary)] AAC 5.1 ESubs…Hon3y 1.9GB DOWNLOAD

Dangal (2016) BluRay 720p x264 Multi Audio [Hindi+Tamil+Telugu+English(commentary)] AAC 5.1 ESubs…Hon3y 1.9GB DOWNLOAD
General
Format                                   : Matroska
Format version                           : Version 4 / Version 2
File size                                : 1.98 GiB
Duration                                 : 2 h 41 min
Overall bit rate                         : 1 765 kb/s
Movie name                               : Dangal—[email protected]

Video
Format                                   : AVC
Format/Info                              : Advanced Video Codec
Format profile                           : [email protected]
Format settings, CABAC                   : Yes
Format settings, ReFrames                : 12 frames
Codec ID                                 : V_MPEG4/ISO/AVC
Duration                                 : 2 h 41 min
Bit rate                                 : 1 000 kb/s
Width                                    : 1 280 pixels
Height                                   : 536 pixels
Display aspect ratio                     : 2.40:1
Frame rate mode                          : Constant
Frame rate                               : 24.000 FPS
Color space                              : YUV
Chroma subsampling                       : 4:2:0
Bit depth                                : 8 bits
Scan type                                : Progressive
Bits/(Pixel*Frame)                       : 0.061
Stream size                              : 1.12 GiB (57%)
Title                                    : Dangal—[email protected]

Audio
Format                                   : AAC
Format/Info                              : Advanced Audio Codec
Format profile                           : LC
Codec ID                                 : A_AAC
Duration                                 : 2 h 41 min
Bit rate                                 : 192 kb/s
Channel(s)                               : 6 channels
Channel positions                        : Front: L C R, Side: L R, LFE
Sampling rate                            : 48.0 kHz
Frame rate                               : 46.875 FPS (1024 spf)
Compression mode                         : Lossy
Delay relative to video                  : 9 ms
Stream size                              : 219 MiB (11%)
Title                                    : Hindi—[email protected]
Language                                 : Hindi
Default                                  : Yes
Forced                                   : Yes

Tamil Audio
Format                                   : AAC
Format/Info                              : Advanced Audio Codec
Format profile                           : LC
Codec ID                                 : A_AAC
Duration                                 : 2 h 41 min
Bit rate                                 : 192 kb/s
Channel(s)                               : 6 channels
Channel positions                        : Front: L C R, Side: L R, LFE
Sampling rate                            : 48.0 kHz
Frame rate                               : 46.875 FPS (1024 spf)
Compression mode                         : Lossy
Delay relative to video                  : 9 ms
Stream size                              : 219 MiB (11%)
Title                                    : Tamil—[email protected]
Language                                 : Tamil
Default                                  : No

Telugu Audio
Format                                   : AAC
Format/Info                              : Advanced Audio Codec
Format profile                           : LC
Codec ID                                 : A_AAC
Duration                                 : 2 h 41 min
Bit rate                                 : 192 kb/s
Channel(s)                               : 6 channels
Channel positions                        : Front: L C R, Side: L R, LFE
Sampling rate                            : 48.0 kHz
Frame rate                               : 46.875 FPS (1024 spf)
Compression mode                         : Lossy
Delay relative to video                  : 9 ms
Stream size                              : 219 MiB (11%)
Title                                    : Telugu—[email protected]
Default                                  : No

English(commentary) Audio
Format                                   : AAC
Format/Info                              : Advanced Audio Codec
Format profile                           : LC
Codec ID                                 : A_AAC
Duration                                 : 2 h 41 min
Bit rate                                 : 192 kb/s
Channel(s)                               : 6 channels
Channel positions                        : Front: L C R, Side: L R, LFE
Sampling rate                            : 48.0 kHz
Frame rate                               : 46.875 FPS (1024 spf)
Compression mode                         : Lossy
Delay relative to video                  : 9 ms
Stream size                              : 219 MiB (11%)
Title                                    : English(commentary)—[email protected]
Language                                 : English
Default                                  : No

Subtitle
Format                                   : UTF-8
Codec ID                                 : S_TEXT/UTF8
Codec ID/Info                            : UTF-8 Plain Text
Duration                                 : 2 h 33 min
Bit rate                                 : 55 b/s
Count of elements                        : 1952
Stream size                              : 62.1 KiB (0%)
Title                                    : English—[email protected]
Language                                 : English
Default                                  : Yes