Bollywood Bollywood BluRay 1080p 720p

Dangal (2016) Hindi BluRay 1080p x264 DD 5.1 ESubs – Hon3y ~4.38GB DOWNLOAD

Dangal (2016) Hindi BluRay 1080p x264 DD 5.1 ESubs – Hon3y ~4.38GB DOWNLOAD
General
Format                                   : Matroska
Format version                           : Version 4 / Version 2
File size                                : 4.38 GiB
Duration                                 : 2 h 41 min
Overall bit rate                         : 3 898 kb/s
Movie name                               : Dangal—[email protected]

Video
Format                                   : AVC
Format/Info                              : Advanced Video Codec
Format profile                           : [email protected]
Format settings, CABAC                   : Yes
Format settings, ReFrames                : 5 frames
Codec ID                                 : V_MPEG4/ISO/AVC
Duration                                 : 2 h 41 min
Bit rate                                 : 3 432 kb/s
Width                                    : 1 920 pixels
Height                                   : 800 pixels
Display aspect ratio                     : 2.40:1
Frame rate mode                          : Constant
Frame rate                               : 24.000 FPS
Color space                              : YUV
Chroma subsampling                       : 4:2:0
Bit depth                                : 8 bits
Scan type                                : Progressive
Bits/(Pixel*Frame)                       : 0.093
Stream size                              : 3.86 GiB (88%)
Title                                    : Dangal—[email protected]

Audio
Format                                   : AC-3
Format/Info                              : Audio Coding 3
Format settings, Endianness              : Big
Codec ID                                 : A_AC3
Duration                                 : 2 h 41 min
Bit rate mode                            : Constant
Bit rate                                 : 448 kb/s
Channel(s)                               : 6 channels
Channel positions                        : Front: L C R, Side: L R, LFE
Sampling rate                            : 48.0 kHz
Frame rate                               : 31.250 FPS (1536 spf)
Bit depth                                : 16 bits
Compression mode                         : Lossy
Stream size                              : 516 MiB (11%)
Title                                    : Hindi—[email protected]
Language                                 : Hindi
Service kind                             : Complete Main
Default                                  : Yes

Subtitle
Format                                   : PGS
Muxing mode                              : zlib
Codec ID                                 : S_HDMV/PGS
Codec ID/Info                            : Picture based subtitle format used on BDs/HD-DVDs
Duration                                 : 2 h 33 min
Bit rate                                 : 17.7 kb/s
Count of elements                        : 3904
Stream size                              : 19.4 MiB (0%)
Title                                    : English PGS—[email protected]
Language                                 : English
Default                                  : Yes