Bollywood Bollywood BluRay 1080p 720p Bollywood HDRip 1080p 720p

Dangal (2016) Hindi BluRay 720p x264 AAC 5.1 ESubs…Hon3y – 1.30 GB

Quote

General
Format                      : Matroska
Format version                   : Version 4 / Version 2
File size                   : 1.34 GiB
Duration                     : 2 h 41 min

Overall bit rate         : 1 192 kb/s
Movie name                         : Dangal—[email protected]

Video
Format                                   : AVC
Format/Info                              : Advanced Video Codec
Format profile                           : [email protected]
Format settings, CABAC                   : Yes
Format settings, ReFrames                : 12 frames
Codec ID                                 : V_MPEG4/ISO/AVC
Duration                                 : 2 h 41 min
Bit rate                                 : 1 000 kb/s
Width                                    : 1 280 pixels
Height                                   : 536 pixels
Display aspect ratio                     : 2.40:1
Frame rate mode                          : Constant
Frame rate                               : 24.000 FPS
Color space                              : YUV
Chroma subsampling                       : 4:2:0
Bit depth                                : 8 bits
Scan type                                : Progressive
Bits/(Pixel*Frame)                       : 0.061
Stream size                              : 1.12 GiB (84%)
Title                                    : Dangal—[email protected]

Audio
Format                                   : AAC
Format/Info                              : Advanced Audio Codec
Format profile                           : LC
Codec ID                                 : A_AAC
Duration                                 : 2 h 41 min
Bit rate                                 : 192 kb/s
Channel(s)                               : 6 channels
Channel positions                        : Front: L C R, Side: L R, LFE
Sampling rate                            : 48.0 kHz
Frame rate                               : 46.875 FPS (1024 spf)
Compression mode                         : Lossy
Delay relative to video                  : 9 ms
Stream size                              : 219 MiB (16%)
Title                                    : Hindi—[email protected]
Language                                 : Hindi
Default                                  : Yes

Subtitle
Format                                   : UTF-8
Codec ID                                 : S_TEXT/UTF8
Codec ID/Info                            : UTF-8 Plain Text
Duration                                 : 2 h 33 min
Bit rate                                 : 55 b/s
Count of elements                        : 1952
Stream size                              : 62.1 KiB (0%)
Title                                    : English—[email protected]
Language                                 : English
Default                                  : Yes

Chapters Menu
00:00:00.000                             : en:00:00:00.000
00:10:33.833                             : en:00:10:33.833
00:16:23.542                             : en:00:16:23.542
00:20:57.833                             : en:00:20:57.833
00:28:12.333                             : en:00:28:12.333
00:32:35.500                             : en:00:32:35.500
00:36:22.708                             : en:00:36:22.708
00:43:44.708                             : en:00:43:44.708
00:47:31.250                             : en:00:47:31.250
00:56:42.833                             : en:00:56:42.833
00:59:54.583                             : en:00:59:54.583
01:02:47.625                             : en:01:02:47.625
01:12:08.333                             : en:01:12:08.333
01:15:28.000                             : en:01:15:28.000
01:26:24.625                             : en:01:26:24.625
01:34:05.250                             : en:01:34:05.250
01:41:23.542                             : en:01:41:23.542
01:45:18.833                             : en:01:45:18.833
01:51:11.583                             : en:01:51:11.583
01:56:49.458                             : en:01:56:49.458
02:04:11.542                             : en:02:04:11.542
02:13:32.417                             : en:02:13:32.417
02:18:20.000                             : en:02:18:20.000
02:31:53.667                             : en:02:31:53.667

:ss:









:download:

Indishare

Bdupload

Openload

Clicknupload

Filecdn

Userscloud

Uptobox

FileRio

Dailyupload

Uploadboy