Bollywood Bollywood 1CDRip

Dear Zindagi (2016) DVDRip HEVC x265 AAC Esubs 1CD DDR – [Team EDM] ~700MB

Dear Zindagi (2016)
151 min|Drama, Romance|November 23, 2016
7.8Rating: 7.8 / 10 from 23,955 users
Kaira is a budding cinematographer in search of a perfect life. Her encounter with Jug, an unconventional thinker, helps her gain a new perspective on life. She discovers that happiness is all about finding comfort in life's imperfections.
759a6f808021e33c26c8fdf5359a907a.jpg
Dear Zindagi (2016) DVDRip HEVC x265 AAC Esubs 1CD DDR – [Team EDM] ~700MB
Format : Matroska
Format version : Version 4 / Version 2
File size : 699 MiB
Duration : 2 h 30 min
Overall bit rate : 651 kb/s
Writing application : mkvmerge v9.7.1 (‘Slave To Your Mind’) 64bit
Writing library : libebml v1.3.4 + libmatroska v1.4.5

Video
Format/Info : High Efficiency Video Coding
Format profile : Main [email protected]@Main
Codec ID : V_MPEGH/ISO/HEVC
Duration : 2 h 30 min
Bit rate : 522 kb/s
Width : 720 pixels
Height : 304 pixels
Display aspect ratio : 2.35:1
Frame rate mode : Constant
Frame rate : 23.976 FPS
Color space : YUV
Chroma subsampling : 4:2:0
Bit depth : 10 bits
Bits/(Pixel*Frame) : 0.099
Stream size : 560 MiB (78%)
Writing library : x265 2.2+17-a2fe29ca5c6c:[Windows][GCC 6.2.0][64 bit] 10bit

Audio
Format : AAC
Format/Info : Advanced Audio Codec
Format profile : HE-AAC / LC
Codec ID : A_AAC
Duration : 2 h 30 min
Bit rate : 128 kb/s
Channel(s) : 2 channels
Channel positions : Front: L R
Sampling rate : 48.0 kHz / 24.0 kHz
Frame rate : 23.438 FPS (1024 spf)
Compression mode : Lossy
Delay relative to video : 31 ms
Stream size : 137 MiB (21%)
Language : Hindi

Chapters & Subtitles
Chapters: 22
Subtitles: English (SRT file provided separately)