Bollywood Bollywood 1CDRip Bollywood HDRip 1080p 720p

Do Lafzon Ki Kahani 2016 Hindi [1CD] DTH Rip x264 AC3 MAXPRO ~700MB

Do Lafzon Ki Kahani (2016)
128 min|Action, Drama, Romance|June 10, 2016
6.5Rating: 6.5 / 10 from 835 users
Centered on ex-mixed martial arts artist Sooraj (Randeep Hooda) and sculptor artist Jenny (Kajal Aggarwal). Their fate intertwines when their past are revealed in their blooming relationship.
0ae26208d6fe95d0b2414f3199adae54.md.jpg
Do Lafzon Ki Kahani 2016 Hindi [1CD] DTH Rip x264 AC3 MAXPRO ~700MB
Format : Matroska
Format version : Version 2
File size : 702 MiB
Duration : 2 h 27 min
Overall bit rate : 668 kb/s
Encoded date : UTC 2017-02-11 03:42:49
Writing application : mkvmerge v8.5.2 (‘Crosses’) 32bit
Writing library : libebml v1.3.3 + libmatroska v1.4.4

Video
ID : 1
Format : AVC
Format/Info : Advanced Video Codec
Format profile : [email protected]
Format settings, CABAC : Yes
Format settings, ReFrames : 4 frames
Codec ID : V_MPEG4/ISO/AVC
Duration : 2 h 27 min
Bit rate : 506 kb/s
Width : 720 pixels
Height : 296 pixels
Display aspect ratio : 2.40:1
Frame rate mode : Constant
Frame rate : 21.830 FPS
Color space : YUV
Chroma subsampling : 4:2:0
Bit depth : 8 bits
Scan type : Progressive
Bits/(Pixel*Frame) : 0.109
Stream size : 532 MiB (76%)
Writing library : x264 core 148 r2638 7599210

Audio
ID : 2
Format : AC-3
Format/Info : Audio Coding 3
Mode extension : CM (complete main)
Format settings, Endianness : Big
Codec ID : A_AC3
Duration : 2 h 27 min
Bit rate mode : Constant
Bit rate : 160 kb/s
Channel(s) : 2 channels
Channel positions : Front: L R
Sampling rate : 44.1 kHz
Frame rate : 28.711 FPS (1536 spf)
Bit depth : 16 bits
Compression mode : Lossy
Stream size : 168 MiB (24%)
Default : Yes
Forced : No
Source: Over the Internet