Hollywood Hollywood BluRay 1080p 720p

Dragonheart Battle for the Heartfire (2017) 720p BRRip x264 AAC 5.1 Esub ~800MB DOWNLOAD

Dragonheart Battle for the Heartfire (2017) 720p BRRip x264 AAC 5.1 Esub
Format                      : Matroska
Format version              : Version 4 / Version 2
File size                   : 869 MiB
Duration                    : 1 h 37 min
Overall bit rate            : 1 242 kb/s
Movie name                  : Dragonheart Battle for the Heartfire

Video
ID                          : 1
Format                      : AVC
Format/Info                 : Advanced Video Codec
Format profile              : [email protected]
Format settings, CABAC      : Yes
Format settings, ReFrames   : 8 frames
Codec ID                    : V_MPEG4/ISO/AVC
Duration                    : 1 h 37 min
Bit rate                    : 1 050 kb/s
Width                       : 1 280 pixels
Height                      : 720 pixels
Display aspect ratio        : 16:9
Frame rate mode             : Constant
Frame rate                  : 23.976 (24000/1001) FPS

Audio
ID                          : 2
Format                      : AAC
Format/Info                 : Advanced Audio Codec
Format profile              : LC
Codec ID                    : A_AAC
Duration                    : 1 h 37 min
Bit rate                    : 192 kb/s
Channel(s)                  : 6 channels
Channel positions           : Front: L C R, Side: L R, LFE
Sampling rate               : 48.0 kHz
Frame rate                  : 46.875 FPS (1024 spf)
Compression mode            : Lossy
Delay relative to video     : 9 ms
Stream size                 : 134 MiB (15%)
Language                    : English
Default                     : Yes
Forced                      : No

Text
ID                          : 3
Format                      : UTF-8
Codec ID                    : S_TEXT/UTF8
Codec ID/Info               : UTF-8 Plain Text
Duration                    : 1 h 34 min
Bit rate                    : 39 b/s
Count of elements           : 944
Stream size                 : 27.4 KiB (0%)
Language                    : English
Default                     : Yes
Forced                      : No

Menu
00:00:00.000                : en:00:00:00.000
00:03:39.344                : en:00:03:39.344
00:07:40.502                : en:00:07:40.502
00:13:19.298                : en:00:13:19.298
00:19:46.602                : en:00:19:46.602
00:24:57.621                : en:00:24:57.621
00:30:13.186                : en:00:30:13.186
00:35:54.652                : en:00:35:54.652
00:39:54.350                : en:00:39:54.350
00:45:37.109                : en:00:45:37.109
00:48:57.560                : en:00:48:57.560
00:51:23.831                : en:00:51:23.831
00:56:22.588                : en:00:56:22.588
01:00:07.979                : en:01:00:07.979
01:06:41.873                : en:01:06:41.873
01:14:41.602                : en:01:14:41.602
01:19:00.486                : en:01:19:00.486
01:22:40.998                : en:01:22:40.998
01:29:40.625                : en:01:29:40.625
01:34:10.687                : en:01:34:10.687

ss

d


Indishare

Bdupload

Repidgator

MULTIUP

Openload

Uptobox