Hindi

Dynamo Magic Impossible S01E01 Hindi Bluray 720p x264 [Team EDM]~965MB

Dynamo: Magician Impossible (2011–2014)
45 min|Documentary|July 7, 2011
8.1Rating: 8.1 / 10 from 1,294 users
Magician to the stars, Dynamo, travels the globe astounding everyone he meets. Dynamo has worked with the likes of Will Smith, Lindsay Lohan, Jay-Z and Russell Brand, been seen on Friday ...

Poster

Dynamo Magic Impossible S01E01 Hindi Bluray 720p x264 [Team EDM]

FIRST ON NET HINDI DUBBED

Format                                   : Matroska
Format version                           : Version 4 / Version 2
File size                                : 936 MiB
Duration                                 : 40 min 25 s
Overall bit rate                         : 3 237 kb/s
Encoded date                             : UTC 2017-02-06 17:15:36
Writing application                      : mkvmerge v9.7.1 (‘Pandemonium’) 64bit
Writing library                          : libebml v1.3.4 + libmatroska v1.4.5 / Lavf55.33.100

Video
ID                                       : 1
Format                                   : AVC
Format/Info                              : Advanced Video Codec
Format profile                           : [email protected]
Format settings, CABAC                   : Yes
Format settings, ReFrames                : 4 frames
Codec ID                                 : V_MPEG4/ISO/AVC
Duration                                 : 40 min 24 s
Bit rate                                 : 3 000 kb/s
Width                                    : 1 280 pixels
Height                                   : 720 pixels
Display aspect ratio                     : 16:9
Frame rate mode                          : Constant
Frame rate                               : 25.000 FPS
Color space                              : YUV
Chroma subsampling                       : 4:2:0
Bit depth                                : 8 bits
Scan type                                : Progressive
Bits/(Pixel*Frame)                       : 0.130
Stream size                              : 865 MiB (92%)

Audio
ID                                       : 2
Format                                   : AAC
Format/Info                              : Advanced Audio Codec
Format profile                           : LC
Codec ID                                 : A_AAC
Duration                                 : 40 min 25 s
Bit rate                                 : 243 kb/s
Channel(s)                               : 2 channels
Channel positions                        : Front: L R
Sampling rate                            : 44.1 kHz
Frame rate                               : 43.066 FPS (1024 spf)
Compression mode                         : Lossy
Stream size                              : 70.1 MiB (7%)
Language                                 : Hindi
Default                                  : Yes
Forced                                   : No

Please Seed Back After Download

Audio Source-AHMED-MAHER-Thanks
Take It Or Leave It
lip to lip Sync by TEAM-EDM
leave Only 1  Comment – I will Reply with more TEAM-EDM Exclusive Movies

Seeding may be slow

Stay toon With Us For More Exclusive Release

To Join Our Whatsapp Group LINK

ss






d

SAMPLE

TORRENT

BDupload

Mirrorace

UploadMor

UsersCloud

Downace

ClicknUpload

Uptobox

Zag