Hollywood Hollywood 300MB

Eliminators 2016 BRRip 480p x264 AAC – [Team EDM] ~350MB

 
Eliminators (2016)
94 min|Action|December 19, 2016
5.5Rating: 5.5 / 10 from 1,929 users
A former US Federal Agent must abandon the witness protection program and come out of hiding when his London home is invaded in error due to a wrong address. When the event ends with ...
024Ys.jpg
 Eliminators 2016 BRRip 480p x264 AAC – [Team EDM] ~350MB
Format : MPEG-4
File size : 351 MiB
Duration : 1 h 34 min
Overall bit rate : 520 kb/s

Video
ID : 1
Format : AVC
Bit rate : 480 kb/s
Width : 720 pixels
Height : 400 pixels
Display aspect ratio : 16:9
Frame rate mode : Constant
Frame rate : 23.976 FPS
Bit depth : 8 bits
Stream size : 324 MiB (92%)
Writing library : x264

Audio
Format : AAC
Bit rate mode : Variable
Bit rate : 36.0 kb/s
Channel(s) : 2 channels
Channel positions : Front: L R
Frame rate : 43.066 FPS
Stream size : 24.3 MiB (7%)
Language : English

Subtitle : Yes (English)

Source : 720p.BluRay