TV Series Pack Tv Show

House of Cards 2013 S05 720p WEBRip x264 MkvCage ~5.2GB DOWNLOAD

House of Cards (2013–)
51 min|Drama|February 1, 2013
9.0Rating: 9.0 / 10 from 361,059 users
A Congressman works with his equally conniving wife to exact revenge on the people who betrayed him.
House of Cards 2013 S05 720p WEBRip x264 MkvCage ~5.2GB DOWNLOAD

Video
ID : 2
Format : AVC
Format/Info : Advanced Video Codec
Format profile : [email protected]
Format settings, CABAC : Yes
Format settings, ReFrames : 5 frames
Codec ID : V_MPEG4/ISO/AVC
Duration : 45 min 36 s
Bit rate : 1 041 kb/s
Width : 1 280 pixels
Height : 640 pixels
Display aspect ratio : 2.000
Frame rate mode : Constant
Frame rate : 23.976 (24000/1001) FPS
Color space : YUV
Chroma subsampling : 4:2:0
Bit depth : 8 bits
Scan type : Progressive
Bits/(Pixel*Frame) : 0.053
Stream size : 340 MiB (94%)
Writing library : x264 core 133 r2334 a3ac64b

Default : Yes
Forced : No

Audio
ID : 3
Format : AAC
Format/Info : Advanced Audio Codec
Format profile : HE-AAC / LC
Codec ID : A_AAC
Duration : 45 min 37 s
Bit rate : 63.1 kb/s
Channel(s) : 2 channels
Channel positions : Front: L R
Sampling rate : 48.0 kHz / 24.0 kHz
Frame rate : 23.438 FPS (1024 spf)
Compression mode : Lossy
Delay relative to video : 31 ms
Stream size : 20.6 MiB (6%)
Language : English
Default : Yes
Forced : No

Text
ID : 1
Format : UTF-8
Codec ID : S_TEXT/UTF8
Codec ID/Info : UTF-8 Plain Text
Duration : 41 min 49 s
Bit rate : 82 b/s
Count of elements : 631
Stream size : 25.2 KiB (0%)
Language : English
Default : Yes
Forced : No