Hollywood Hollywood HDRip 1080p 720p

John Wick Chapter 2 2017 1080p WEB-DL DD5.1 H264 FGT ~3.80GB DOWNLOAD

John Wick: Chapter 2 (2017)
122 min|Action, Crime, Thriller|February 10, 2017
7.8Rating: 7.8 / 10 from 123,229 users
After returning to the criminal underworld to repay a debt, John Wick discovers that a large bounty has been put on his life.
John Wick Chapter 2 2017 1080p WEB-DL DD5.1 H264 FGT ~3.80GB DOWNLOAD
Video
ID                                       : 1
Format                                   : AVC
Format/Info                              : Advanced Video Codec
Format profile                           : [email protected]
Format settings, CABAC                   : Yes
Format settings, ReFrames                : 5 frames
Codec ID                                 : V_MPEG4/ISO/AVC
Duration                                 : 2h 2mn
Bit rate                                 : 4 445 Kbps
Width                                    : 1 912 pixels
Height                                   : 792 pixels
Display aspect ratio                     : 2.40:1
Frame rate mode                          : Constant
Frame rate                               : 23.976 (24000/1001) fps
Color space                              : YUV
Chroma subsampling                       : 4:2:0
Bit depth                                : 8 bits
Scan type                                : Progressive
Bits/(Pixel*Frame)                       : 0.122
Stream size                              : 3.80 GiB (90%)
Title                                    : John.Wick.Chapter.2.2017.1080p.WEB-DL.DD5.1.H264-FGT
Language                                 : English
Default                                  : Yes
Forced                                   : No
Color range                              : Limited
Color primaries                          : BT.709
Transfer characteristics                 : BT.709
Matrix coefficients                      : BT.709Audio
ID                                       : 2
Format                                   : AC-3
Format/Info                              : Audio Coding 3
Mode extension                           : CM (complete main)
Format settings, Endianness              : Big
Codec ID                                 : A_AC3
Duration                                 : 2h 2mn
Bit rate mode                            : Constant
Bit rate                                 : 384 Kbps
Channel(s)                               : 6 channels
Channel positions                        : Front: L C R, Side: L R, LFE
Sampling rate                            : 48.0 KHz
Frame rate                               : 31.250 fps (1536 spf)
Compression mode                         : Lossy
Delay relative to video                  : -42ms
Stream size                              : 336 MiB (8%)
Title                                    : John.Wick.Chapter.2.2017.1080p.WEB-DL.DD5.1.H264-FGT
Language                                 : English
Default                                  : Yes
Forced                                   : NoText
ID                                       : 3
Format                                   : UTF-8
Codec ID                                 : S_TEXT/UTF8
Codec ID/Info                            : UTF-8 Plain Text
Language                                 : English
Default                                  : Yes
Forced                                   : No

Menu
00:00:00.000                             : en:1
00:14:26.000                             : en:2
00:26:35.000                             : en:3
00:38:01.000                             : en:4
00:48:07.000                             : en:5
01:01:43.000                             : en:6
01:13:19.000                             : en:7
01:25:12.000                             : en:8
01:34:59.000                             : en:9
01:43:49.000                             : en:10
01:55:19.000                             : en:11