Hollywood Hollywood HDRip 1080p 720p

John Wick Chapter 2 2017 WEB-DL x264-FGT ~1GB DOWNLOAD

John Wick: Chapter 2 (2017)
122 min|Action, Crime, Thriller|February 10, 2017
7.8Rating: 7.8 / 10 from 123,229 users
After returning to the criminal underworld to repay a debt, John Wick discovers that a large bounty has been put on his life.
John.Wick.Chapter.2.2017.WEB-DL.x264-FGT
John Wick Chapter 2 2017 WEB-DL x264-FGT ~1GB DOWNLOAD
Video
ID                                       : 1
Format                                   : AVC
Format/Info                              : Advanced Video Codec
Format profile                           : [email protected]
Format settings, CABAC                   : Yes
Format settings, ReFrames                : 5 frames
Codec ID                                 : avc1
Codec ID/Info                            : Advanced Video Coding
Duration                                 : 2h 2mn
Bit rate                                 : 1 100 Kbps
Width                                    : 720 pixels
Height                                   : 304 pixels
Display aspect ratio                     : 2.40:1
Original display aspect ratio            : 2.40:1
Frame rate mode                          : Constant
Frame rate                               : 23.976 (24000/1001) fps
Color space                              : YUV
Chroma subsampling                       : 4:2:0
Bit depth                                : 8 bits
Scan type                                : Progressive
Bits/(Pixel*Frame)                       : 0.210
Stream size                              : 954 MiB (89%)
Title                                    : John.Wick.Chapter.2.2017.WEB-DL.x264-FGT
Writing library                          : x264 core 148 r2597M e86f3a1

Language                                 : English

Audio
ID                                       : 2
Format                                   : AAC
Format/Info                              : Advanced Audio Codec
Format profile                           : LC
Codec ID                                 : 40
Duration                                 : 2h 2mn
Duration_LastFrame                       : 32ms
Bit rate mode                            : Constant
Bit rate                                 : 128 Kbps
Channel(s)                               : 2 channels
Channel positions                        : Front: L R
Sampling rate                            : 48.0 KHz
Frame rate                               : 46.875 fps (1024 spf)
Compression mode                         : Lossy
Stream size                              : 112 MiB (10%)
Title                                    : John.Wick.Chapter.2.2017.WEB-DL.x264-FGT
Language                                 : English
Default                                  : Yes
Alternate group                          : 1