Dual Audios Hollywood 3D

The Jungle Book 3D (2016) BluRay 1080p x246 Dual-Audio [Hindi AC3 5.1 – English DTS 5.1]…Hon3y ~7.31GB

 
The Jungle Book (2016)
106 min|Adventure, Drama, Family, Fantasy|April 15, 2016
7.5Rating: 7.5 / 10 from 200,005 users
After a threat from the tiger Shere Khan forces him to flee the jungle, a man-cub named Mowgli embarks on a journey of self discovery with the help of panther, Bagheera, and free spirited bear, Baloo.
 
General
Format                      : Matroska
Format version              : Version 4 / Version 2
File size                   : 7.31 GiB
Duration                    : 1 h 45 min
Overall bit rate            : 9 879 kb/s

Video
Format                      : AVC
Format/Info                 : Advanced Video Codec
Format profile              : [email protected]
Format settings, CABAC      : Yes
Format settings, ReFrames   : 4 frames
Codec ID                    : V_MPEG4/ISO/AVC
Duration                    : 1 h 45 min
Bit rate                    : 7 696 kb/s
Width                       : 1 920 pixels
Height                      : 1 080 pixels
Display aspect ratio        : 16:9
Frame rate mode             : Constant
Frame rate                  : 23.976 (24000/1001) FPS
Color space                 : YUV
Chroma subsampling          : 4:2:0
Bit depth                   : 8 bits
Scan type                   : Progressive
Bits/(Pixel*Frame)          : 0.155
Stream size                 : 5.69 GiB (78%)
Title                       : [email protected]

Audio 1
Format                      : AC-3
Format/Info                 : Audio Coding 3
Mode extension              : CM (complete main)
Format settings, Endianness : Big
Codec ID                    : A_AC3
Duration                    : 1 h 45 min
Bit rate mode               : Constant
Bit rate                    : 640 kb/s
Channel(s)                  : 6 channels
Channel positions           : Front: L C R, Side: L R, LFE
Sampling rate               : 48.0 kHz
Frame rate                  : 31.250 FPS (1536 spf)
Compression mode            : Lossy
Stream size                 : 485 MiB (6%)
Title                       : Hindi—[email protected]
Language                    : Hindi
Default                     : Yes
Forced                      : Yes

Audio 2
Format                      : DTS
Format/Info                 : Digital Theater Systems
Mode                        : 16
Format settings, Endianness : Big
Codec ID                    : A_DTS
Duration                    : 1 h 45 min
Bit rate mode               : Constant
Bit rate                    : 1 509 kb/s
Channel(s)                  : 6 channels
Channel positions           : Front: L C R, Side: L R, LFE
Sampling rate               : 48.0 kHz
Frame rate                  : 93.750 FPS (512 spf)
Bit depth                   : 24 bits
Compression mode            : Lossy
Stream size                 : 1.12 GiB (15%)
Title                       : English—[email protected]
Language                    : English
Default                     : No

Subtitle Text
Format                      : PGS
Muxing mode                 : zlib
Codec ID                    : S_HDMV/PGS
Codec ID/Info               : Picture based subtitle format used on BDs/HD-DVDs
Duration                    : 1 h 44 min
Bit rate                    : 10.6 kb/s
Count of elements           : 2822
Stream size                 : 7.94 MiB (0%)
Title                       : English—[email protected]
Language                    : English
Default                     : No

UPTOBOX