Bollywood Bollywood BluRay 1080p 720p

Kal Ho Naa Ho 2003 Hindi 1080p BluRay x264 DTS 5.1 Esub – Hon3y ~4.38GB DOWNLOAD

Kal Ho Naa Ho (2003)
186 min|Comedy, Drama, Romance|April 27, 2005
8.0Rating: 8.0 / 10 from 50,067 users
Naina, an introverted, perpetually depressed girl's life changes when she meets Aman. But Aman has a secret of his own which changes their lives forever. Embroiled in all this is Rohit, Naina's best friend who conceals his love for her.
 Kal Ho Naa Ho 2003 Hindi 1080p BluRay x264 DTS 5.1 Esub – Hon3y ~4.38GB DOWNLOAD

Video
ID : 1
Format : AVC
Format/Info : Advanced Video Codec
Format profile : [email protected]
Format settings, CABAC : Yes
Format settings, ReFrames : 5 frames
Codec ID : V_MPEG4/ISO/AVC
Duration : 3 h 7 min
Bit rate : 2 565 kb/s
Width : 1 920 pixels
Height : 816 pixels
Display aspect ratio : 2.35:1
Frame rate mode : Constant
Frame rate : 24.000 FPS
Color space : YUV
Chroma subsampling : 4:2:0
Bit depth : 8 bits
Scan type : Progressive
Bits/(Pixel*Frame) : 0.068
Stream size : 3.36 GiB (77%)

Audio
ID : 2
Format : DTS
Format/Info : Digital Theater Systems
Mode : 16
Format settings, Endianness : Big
Codec ID : A_DTS
Duration : 3 h 7 min
Bit rate mode : Constant
Bit rate : 768 kb/s
Channel(s) : 6 channels
Channel positions : Front: L C R, Side: L R, LFE
Sampling rate : 48.0 kHz
Frame rate : 93.750 FPS (512 spf)
Bit depth : 24 bits
Compression mode : Lossy
Stream size : 1.01 GiB (23%)
Language : Hindi
Default : Yes
Forced : No

Text
ID : 3
Format : PGS
Muxing mode : zlib
Codec ID : S_HDMV/PGS
Codec ID/Info : Picture based subtitle format used on BDs/HD-DVDs
Duration : 3 h 4 min
Bit rate : 12.6 kb/s
Count of elements : 5402
Stream size : 16.6 MiB (0%)
Language : English
Default : Yes
Forced : No

Menu
00:00:00.000 : en:Chapter 01
00:03:39.958 : en:Chapter 02
00:09:32.625 : en:Chapter 03
00:13:01.000 : en:Chapter 04
00:18:56.958 : en:Chapter 05
00:26:41.833 : en:Chapter 06
00:32:24.333 : en:Chapter 07
00:45:16.708 : en:Chapter 08
00:53:50.625 : en:Chapter 09
00:59:10.791 : en:Chapter 10
01:07:51.750 : en:Chapter 11
01:15:37.916 : en:Chapter 12
01:20:43.916 : en:Chapter 13
01:32:43.000 : en:Chapter 14
01:38:21.750 : en:Chapter 15
01:51:27.375 : en:Chapter 16
02:02:40.000 : en:Chapter 17
02:07:57.458 : en:Chapter 18
02:16:38.625 : en:Chapter 19
02:22:07.083 : en:Chapter 20
02:31:51.375 : en:Chapter 21
02:38:14.375 : en:Chapter 22
02:50:20.000 : en:Chapter 23
02:56:27.000 : en:Chapter 24