Dual Audios Dual Audios Pre-Releases (Latest)

Kong Skull Island (2017) [DVDScr – HQ Audios Tamil + Rus x264~1.45GB

Kong: Skull Island (2017)
118 min|Action, Adventure, Fantasy, Sci-Fi|March 10, 2017
6,9Rating: 6,9 / 10 from 97 529 users
A team of scientists explore an uncharted island in the Pacific, venturing into the domain of the mighty Kong, and must fight to escape a primal Eden.

151294923743685462349007223248855726283478o.jpg

General
Complete name : files/Kong_Skull_Island_(2017)_[DVDScr_-_HQ_Audios_[Tamil_+_Rus][x264_-_1.4GB-fashionfa.com.mkv
Format : Matroska
Format version : Version 4 / Version 2
File size : 1.46 GiB
Duration : 1 h 48 min
Overall bit rate : 1 928 kb/s
Encoded date : UTC 2017-03-10 16:10:47
Writing application : mkvmerge v7.8.0 (‘River Man’) 64bit built on Mar 27 2015 16:31:37
Writing library : libebml v1.3.1 + libmatroska v1.4.2

Video
ID : 1
Format : MPEG-4 Visual
Format profile : Advanced [email protected]
Format settings, BVOP : 2
Format settings, QPel : No
Format settings, GMC : No warppoints
Format settings, Matrix : Default (MPEG)
Codec ID : V_MS/VFW/FOURCC / XVID
Codec ID/Hint : XviD
Duration : 1 h 48 min
Bit rate : 1 670 kb/s
Width : 720 pixels
Height : 304 pixels
Display aspect ratio : 2.35:1
Frame rate mode : Constant
Frame rate : 30.000 FPS
Color space : YUV
Chroma subsampling : 4:2:0
Bit depth : 8 bits
Scan type : Progressive
Compression mode : Lossy
Bits/(Pixel*Frame) : 0.254
Stream size : 1.26 GiB (87%)
Writing library : XviD 1.2.1 (UTC 2008-12-04)
Language : English
Default : Yes
Forced : Yes

Audio #1
ID : 2
Format : MPEG Audio
Format version : Version 1
Format profile : Layer 3
Mode : Joint stereo
Mode extension : MS Stereo
Codec ID : A_MPEG/L3
Codec ID/Hint : MP3
Duration : 1 h 48 min
Bit rate mode : Constant
Bit rate : 128 kb/s
Channel(s) : 2 channels
Sampling rate : 44.1 kHz
Frame rate : 38.281 FPS (1152 spf)
Compression mode : Lossy
Stream size : 98.8 MiB (7%)
Language : Tamil
Default : Yes
Forced : Yes

Audio #2
ID : 3
Format : AC-3
Format/Info : Audio Coding 3
Mode extension : CM (complete main)
Format settings, Endianness : Big
Codec ID : A_AC3
Duration : 1 h 48 min
Bit rate mode : Constant
Bit rate : 128 kb/s
Channel(s) : 2 channels
Channel positions : Front: L R
Sampling rate : 48.0 kHz
Frame rate : 31.250 FPS (1536 spf)
Bit depth : 16 bits
Compression mode : Lossy
Stream size : 99.0 MiB (7%)
Language : Russian
Default : No
Forced : No

ss

d

GOOGLE DRIVE

BDupload

Bigfile

1Fichier

Filerio

Filescdn

Filecloud

Clicknupload

Downace

Uploading.net

Uploadingsite

UploadRocket

Oboom

Openload

Uploadx

Uplea

Uptobox

Upload.af

Usersfiles

Userscloud

Turbobit

Tusfile

Zag

cft-facebook-group