Dual Audios Dual Audios Pre-Releases (Latest)

Kong Skull Island 2017 Hindi HDTS-New-Video-x264-AAC~800MB

Kong: Skull Island (2017)
118 min|Action, Adventure, Fantasy, Sci-Fi|March 10, 2017
6,9Rating: 6,9 / 10 from 97 529 users
A team of scientists explore an uncharted island in the Pacific, venturing into the domain of the mighty Kong, and must fight to escape a primal Eden.

151294923743685462349007223248855726283478o.jpg

General
Complete name : files/Kong_Skull_Island_2017_Hindi_HDTS-New-Video-x264-AAC-fashionfa.com.mp4
Format : MPEG-4
Format profile : Base Media / Version 2
Codec ID : mp42 (mp42/isom/avc1)
File size : 800 MiB
Duration : 1 h 47 min
Overall bit rate mode : Variable
Overall bit rate : 1 037 kb/s
Encoded date : UTC 2017-03-11 06:55:40
Tagged date : UTC 2017-03-11 07:15:42
Writing application : HandBrake 0.9.9 2013051800

Video
ID : 1
Format : AVC
Format/Info : Advanced Video Codec
Format profile : [email protected]
Format settings, CABAC : Yes
Format settings, ReFrames : 4 frames
Codec ID : avc1
Codec ID/Info : Advanced Video Coding
Duration : 1 h 47 min
Bit rate : 905 kb/s
Width : 720 pixels
Height : 320 pixels
Display aspect ratio : 2.25:1
Frame rate mode : Variable
Frame rate : 25.000 FPS
Minimum frame rate : 2.778 FPS
Maximum frame rate : 25.000 FPS
Color space : YUV
Chroma subsampling : 4:2:0
Bit depth : 8 bits
Scan type : Progressive
Bits/(Pixel*Frame) : 0.157
Stream size : 698 MiB (87%)
Writing library : x264 core 130 r2273 b3065e6
Encoded date : UTC 2017-03-11 06:55:40
Tagged date : UTC 2017-03-11 07:15:36
Color range : Limited
Color primaries : BT.601 NTSC
Transfer characteristics : BT.709
Matrix coefficients : BT.601

Audio
ID : 2
Format : AAC
Format/Info : Advanced Audio Codec
Format profile : LC
Codec ID : 40
Duration : 1 h 47 min
Bit rate mode : Variable
Bit rate : 128 kb/s
Maximum bit rate : 200 kb/s
Channel(s) : 2 channels
Channel positions : Front: L R
Sampling rate : 48.0 kHz
Frame rate : 46.875 FPS (1024 spf)
Compression mode : Lossy
Stream size : 98.7 MiB (12%)
Title : Stereo
Encoded date : UTC 2017-03-11 06:55:40
Tagged date : UTC 2017-03-11 07:15:34

ss

d

GOOGLE DRIVE

BDupload

Bigfile

1Fichier

Filerio

Filescdn

Filecloud

Clicknupload

Downace

Uploading.net

Uploadingsite

UploadRocket

Oboom

Openload

Uploadx

Upload.af

Usersfiles

Userscloud

Turbobit

Share-online

Zag

cft-facebook-group