Dual Audios Dual Audios BluRay 1080p 720p

Logan [2017] 1080p BluRay x264 [DD 5.1] [HINDI – ENG] ~4.2GB DOWNLOAD

Logan (2017)
137 min|Action, Drama, Sci-Fi, Thriller|March 3, 2017
8.3Rating: 8.3 / 10 from 301,274 users
In the near future, a weary Logan cares for an ailing Professor X somewhere on the Mexican border. However, Logan's attempts to hide from the world and his legacy are upended when a young mutant arrives, pursued by dark forces.
 Logan [2017] 1080p BluRay x264 [DD 5.1] [HINDI – ENG] ~4.2GB DOWNLOAD

Video
ID : 1
Format : AVC
Format/Info : Advanced Video Codec
Format profile : [email protected]
Format settings, CABAC : Yes
Format settings, ReFrames : 5 frames
Codec ID : V_MPEG4/ISO/AVC
Duration : 2h 17mn
Bit rate : 3 526 Kbps
Width : 1 920 pixels
Height : 804 pixels
Display aspect ratio : 2.40:1
Frame rate mode : Constant
Frame rate : 23.976 (24000/1001) fps
Color space : YUV
Chroma subsampling : 4:2:0
Bit depth : 8 bits
Scan type : Progressive
Bits/(Pixel*Frame) : 0.095
Stream size : 3.38 GiB (81%)
Title : Logan [2017] 1080p BluRay x264 [DD 5.1] [HINDI – ENG] ® I’m Loser ® ~ EXCLUSIVE
Writing library : x264 core 133 r2334 a3ac64b
Language : Hindi
Default : Yes
Forced : No

Audio #1
ID : 2
Format : AC-3
Format/Info : Audio Coding 3
Mode extension : CM (complete main)
Format settings, Endianness : Big
Codec ID : A_AC3
Duration : 2h 17mn
Bit rate mode : Constant
Bit rate : 448 Kbps
Channel(s) : 6 channels
Channel positions : Front: L C R, Side: L R, LFE
Sampling rate : 48.0 KHz
Frame rate : 31.250 fps (1536 spf)
Compression mode : Lossy
Stream size : 440 MiB (10%)
Title : DD 5.1 ® I’m Loser ®
Language : Hindi
Default : No
Forced : No

Audio #2
ID : 3
Format : AC-3
Format/Info : Audio Coding 3
Mode extension : CM (complete main)
Format settings, Endianness : Big
Codec ID : A_AC3
Duration : 2h 17mn
Bit rate mode : Constant
Bit rate : 384 Kbps
Channel(s) : 6 channels
Channel positions : Front: L C R, Side: L R, LFE
Sampling rate : 48.0 KHz
Frame rate : 31.250 fps (1536 spf)
Compression mode : Lossy
Stream size : 377 MiB (9%)
Title : DD 5.1 ® I’m Loser ®
Language : English
Default : No
Forced : No