Dual Audios Dual Audios HDRip 1080p 720p

Logan.(2017).720p.HD-RIP.Dual.Audio.Hindi-Eng.x264.Mp3.Aac.By.Sam – 919 MB

Logan (2017)
137 min|Action, Drama, Sci-Fi, Thriller|March 3, 2017
8.3Rating: 8.3 / 10 from 301,274 users
In the near future, a weary Logan cares for an ailing Professor X somewhere on the Mexican border. However, Logan's attempts to hide from the world and his legacy are upended when a young mutant arrives, pursued by dark forces.
Logan.(2017).720p.HD-RIP.Dual.Audio.Hindi-Eng.x264.Mp3.Aac.By.Sam- 919 MB
Source                      : Over Net
Format                      : Matroska
Format version              : Version 4 / Version 2
File size                   : 919 MiB
Duration                    : 2 h 17 min
Overall bit rate mode       : Variable
Overall bit rate            : 936 kb/s
Encoded date                : UTC 2017-04-15 17:16:20
Writing application         : mkvmerge v8.1.0 (‘Psychedelic Postcard’) 32bit
Writing library             : libebml v1.3.1 + libmatroska v1.4.2Video
ID                          : 1
Format                      : AVC
Format/Info                 : Advanced Video Codec
Format profile              : [email protected]
Format settings, CABAC      : Yes
Format settings, ReFrames   : 4 frames
Codec ID                    : V_MPEG4/ISO/AVC
Duration                    : 2 h 17 min
Bit rate                    : 745 kb/s
Width                       : 1 280 pixels
Height                      : 720 pixels
Display aspect ratio        : 16:9
Frame rate mode             : Constant
Frame rate                  : 29.756 FPS
Color space                 : YUV
Chroma subsampling          : 4:2:0
Bit depth                   : 8 bits
Scan type                   : Progressive
Bits/(Pixel*Frame)          : 0.027
Stream size                 : 731 MiB (80%)
Writing library             : x264 core 148 r2638 7599210
Default                     : Yes
Forced                      : No

Audio #1
ID                          : 2
Format                      : MPEG Audio
Format version              : Version 1
Format profile              : Layer 3
Mode                        : Joint stereo
Codec ID                    : A_MPEG/L3
Codec ID/Hint               : MP3
Duration                    : 2 h 17 min
Bit rate mode               : Variable
Bit rate                    : 128 kb/s
Channel(s)                  : 2 channels
Sampling rate               : 48.0 kHz
Frame rate                  : 41.667 FPS (1152 spf)
Compression mode            : Lossy
Stream size                 : 122 MiB (13%)
Writing library             : LAME3.99r
Language                    : Hindi
Default                     : No
Forced                      : Yes

Audio #2
ID                          : 3
Format                      : AAC
Format/Info                 : Advanced Audio Codec
Format profile              : LC
Codec ID                    : A_AAC
Duration                    : 2 h 17 min
Bit rate                    : 64.3 kb/s
Channel(s)                  : 2 channels
Channel positions           : Front: L R
Sampling rate               : 48.0 kHz
Frame rate                  : 46.875 FPS (1024 spf)
Compression mode            : Lossy
Stream size                 : 63.1 MiB (7%)
Language                    : English
Default                     : No
Forced                      : No

Text
ID                          : 4
Format                      : UTF-8
Codec ID                    : S_TEXT/UTF8
Codec ID/Info               : UTF-8 Plain Text
Duration                    : 2 h 8 min
Bit rate                    : 37 b/s
Count of elements           : 1263
Stream size                 : 34.7 KiB (0%)
Language                    : English
Default                     : Yes
Forced                      : Yes