Punjabi

Love Punjab (2016) 720p DVDRIP x264 ~900MB DOWNLOAD

Love Punjab (2016)
130 min|Family|March 11, 2016
7.6Rating: 7.6 / 10 from 425 users
The story of Love Punjab revolves around a family in which husband and wife fights daily for small reasons and their son is only victim of these fights. After suffering from all these ...

Love Punjab (2016) 720p DVDRIP x264 ~900MB

General
Unique ID : 181667541654452385772814694323392278136 (0x88ABE555BDAC985BB2678D147E82EE78)
Format : Matroska
Format version : Version 4 / Version 2
File size : 893 MiB
Duration : 2 h 10 min
Overall bit rate : 957 kb/s
Movie name : Love Punjab 2016 GOPI SAHI
Encoded date : UTC 2017-06-15 08:05:59
Writing application : mkvmerge v12.0.0 (‘Trust / Lust’) 64bit
Writing library : libebml v1.3.4 + libmatroska v1.4.5

Video
ID : 1
Format : AVC
Format/Info : Advanced Video Codec
Format profile : [email protected]
Format settings, CABAC : Yes
Format settings, ReFrames : 4 frames
Codec ID : V_MPEG4/ISO/AVC
Duration : 2 h 10 min
Bit rate : 899 kb/s
Width : 1 280 pixels
Height : 656 pixels
Display aspect ratio : 1.951
Frame rate mode : Constant
Frame rate : 23.976 (24000/1001) FPS
Color space : YUV
Chroma subsampling : 4:2:0
Bit depth : 8 bits
Scan type : Progressive
Bits/(Pixel*Frame) : 0.045
Stream size : 834 MiB (93%)
Title : This Movie Downloaded @Extradesimovies.com
Writing library : x264 core 130 r2273 b3065e6
Encoding settings : cabac=1 / ref=1 / deblock=1:0:0 / analyse=0x1:0x111 / me=hex / subme=2 / psy=1 / psy_rd=1.00:0.00 / mixed_ref=0 / me_range=16 / chroma_me=1 / trellis=0 / 8x8dct=0 / cqm=0 / deadzone=21,11 / fast_pskip=1 / chroma_qp_offset=0 / threads=3 / lookahead_threads=1 / sliced_threads=0 / nr=0 / decimate=1 / interlaced=0 / bluray_compat=0 / constrained_intra=0 / bframes=3 / b_pyramid=2 / b_adapt=1 / b_bias=0 / direct=1 / weightb=1 / open_gop=0 / weightp=1 / keyint=240 / keyint_min=24 / scenecut=40 / intra_refresh=0 / rc_lookahead=10 / rc=abr / mbtree=1 / bitrate=899 / ratetol=1.0 / qcomp=0.60 / qpmin=0 / qpmax=69 / qpstep=4 / vbv_maxrate=20000 / vbv_bufsize=25000 / nal_hrd=none / ip_ratio=1.40 / aq=1:1.00
Language : English
Default : Yes
Forced : No
Color range : Limited
Color primaries : BT.709
Transfer characteristics : BT.709
Matrix coefficients : BT.709

Audio
ID : 2
Format : AAC
Format/Info : Advanced Audio Codec
Format profile : LC
Codec ID : A_AAC
Duration : 2 h 10 min
Bit rate : 61.5 kb/s
Channel(s) : 6 channels
Channel positions : Front: L C R, Side: L R, LFE
Sampling rate : 44.1 kHz
Frame rate : 43.066 FPS (1024 spf)
Compression mode : Lossy
Stream size : 57.3 MiB (6%)
Title : Extradesimovies.com
Language : English
Default : Yes
Forced : No

Text
ID : 3
Format : UTF-8
Codec ID : S_TEXT/UTF8
Codec ID/Info : UTF-8 Plain Text
Duration : 1 min 0 s
Bit rate : 1 b/s
Count of elements : 1
Stream size : 9.00 Bytes (0%)
Title : Extradesimovies.com
Language : English
Default : Yes
Forced : No

ss
 
d

Torrent


Sample


Repidgator
OpenLoad
ClicknUpload
BDUpload
UptoBox