South Dubbed South Dubbed HDRip 1080p 720p

Mard Ki Zabaan 2 (Soukhyam) (2017) 720p WEBHD [Dual Audio] Hindi Clear Cam x264 Aac By Sam ~2.16GB DOWNLOAD

Soukhyam (2015)
N/A|Action, Romance|December 25, 2015
3.7Rating: 3.7 / 10 from 41 users
Soukhyam tells the story of a happy-go-lucky young man, who wants to provide the comforts of life to his family. When he falls in love with a girl, he suddenly faces a lot of obstacles. How...
 Poster

Mard Ki Zabaan 2 (Soukhyam) (2017) 720p WEBHD Dual Audio Hindi Clear Cam x264 Aac By Sam

Source                      : Over Net
Format                      : Matroska
Format version              : Version 4 / Version 2
File size                   : 2.16 GiB
Duration                    : 2 h 10 min
Overall bit rate            : 2 365 kb/s
Encoded date                : UTC 2017-06-17 13:13:43
Writing application         : mkvmerge v8.1.0 (‘Psychedelic Postcard’) 32bit
Writing library             : libebml v1.3.1 + libmatroska v1.4.2

Video
ID                          : 1
Format                      : AVC
Format/Info                 : Advanced Video Codec
Format profile              : [email protected]
Format settings, CABAC      : Yes
Format settings, ReFrames   : 4 frames
Codec ID                    : V_MPEG4/ISO/AVC
Duration                    : 2 h 10 min
Bit rate                    : 2 066 kb/s
Nominal bit rate            : 2 500 kb/s
Width                       : 1 280 pixels
Height                      : 720 pixels
Display aspect ratio        : 16:9
Frame rate mode             : Constant
Frame rate                  : 25.000 FPS
Color space                 : YUV
Chroma subsampling          : 4:2:0
Bit depth                   : 8 bits
Scan type                   : Progressive
Bits/(Pixel*Frame)          : 0.090
Stream size                 : 1.89 GiB (87%)
Writing library             : x264 core 148 r2694 3b70645
Default                     : Yes
Forced                      : No

Audio #1
ID                          : 2
Format                      : AAC
Format/Info                 : Advanced Audio Codec
Format profile              : LC
Codec ID                    : A_AAC
Duration                    : 2 h 10 min
Bit rate                    : 165 kb/s
Channel(s)                  : 2 channels
Channel positions           : Front: L R
Sampling rate               : 48.0 kHz
Frame rate                  : 46.875 FPS (1024 spf)
Compression mode            : Lossy
Stream size                 : 154 MiB (7%)
Language                    : Hindi
Default                     : Yes
Forced                      : Yes

Audio #2
ID                          : 3
Format                      : AAC
Format/Info                 : Advanced Audio Codec
Format profile              : LC
Codec ID                    : A_AAC
Duration                    : 2 h 10 min
Bit rate                    : 132 kb/s
Channel(s)                  : 2 channels
Channel positions           : Front: L R
Sampling rate               : 44.1 kHz
Frame rate                  : 43.066 FPS (1024 spf)
Compression mode            : Lossy
Stream size                 : 123 MiB (6%)
Language                    : Telugu
Default                     : No
Forced                      : No

ss

d

Torrent


Sample


Repidgator
UptoBox