Hindi Tv Show

Mars 2016 S01E06 Dual Audio Hindi-Eng 720p-WebRip X264 [Team EDM]~663MB

Crossroads (2016)
46 min|Adventure, Drama, Sci-Fi|December 19, 2016
7.9Rating: 7.9 / 10 from 186 users
In 2037, a devastating tragedy in the colony forces everyone to question the mission. In the present, SpaceX attempts another pioneering launch.

Poster

Mars 2016 S01E06 Dual Audio Hindi-Eng 720p-WebRip X264 [Team EDM]

FIRST ON NET INDIAN DUBBED

General
Format                                   : Matroska
Format version                           : Version 4 / Version 2
File size                                : 664 MiB
Duration                                 : 45 min 30 s
Overall bit rate                         : 2 039 kb/s
Encoded date                             : UTC 2017-02-16 15:24:28
Writing application                      : mkvmerge v9.7.1 (‘Pandemonium’) 64bit
Writing library                          : libebml v1.3.4 + libmatroska v1.4.5 / Lavf55.33.100

Video
ID                                       : 1
Format                                   : AVC
Format/Info                              : Advanced Video Codec
Format profile                           : [email protected]
Format settings, CABAC                   : Yes
Format settings, ReFrames                : 4 frames
Codec ID                                 : V_MPEG4/ISO/AVC
Duration                                 : 45 min 30 s
Bit rate                                 : 1 800 kb/s
Width                                    : 1 280 pixels
Height                                   : 720 pixels
Display aspect ratio                     : 16:9
Frame rate mode                          : Constant
Frame rate                               : 30.000 FPS
Color space                              : YUV
Chroma subsampling                       : 4:2:0
Bit depth                                : 8 bits
Scan type                                : Progressive
Bits/(Pixel*Frame)                       : 0.065
Stream size                              : 586 MiB (88%)
Writing library                          : x264 core 132
Default                                  : Yes
Forced                                   : No

Audio #1
ID                                       : 2
Format                                   : AAC
Format/Info                              : Advanced Audio Codec
Format profile                           : LC
Codec ID                                 : A_AAC
Duration                                 : 45 min 30 s
Bit rate                                 : 108 kb/s
Channel(s)                               : 2 channels
Channel positions                        : Front: L R
Sampling rate                            : 44.1 kHz
Frame rate                               : 43.066 FPS (1024 spf)
Compression mode                         : Lossy
Delay relative to video                  : 14 ms
Stream size                              : 35.0 MiB (5%)
Language                                 : Hindi
Default                                  : Yes
Forced                                   : No

Audio #2
ID                                       : 3
Format                                   : MPEG Audio
Format version                           : Version 1
Format profile                           : Layer 3
Mode                                     : Joint stereo
Codec ID                                 : A_MPEG/L3
Codec ID/Hint                            : MP3
Duration                                 : 45 min 30 s
Bit rate mode                            : Constant
Bit rate                                 : 128 kb/s
Channel(s)                               : 2 channels
Sampling rate                            : 44.1 kHz
Frame rate                               : 38.281 FPS (1152 spf)
Compression mode                         : Lossy
Delay relative to video                  : -66 ms
Stream size                              : 41.7 MiB (6%)
Writing library                          : LAME3.98.2
Language                                 : English
Default                                  : No
Forced                                   : No

Please Seed Back After Download

Final Episode of Season 01

Audio Source-AHMED-MAHER-Thanks
Take It Or Leave It
lip to lip Sync by TEAM-EDM
leave Only 1  Comment – I will Reply with more TEAM-EDM Exclusive Movies

Stay toon With Us For More Exclusive Release

ss





d

TORRENT

BDupload

UploadMor

UsersCloud

Downace

ClicknUpload

Uptobox

Zag

cft-facebook-group