TV Series Pack Tv Show

Orange is the New Black S03 BDRip x264 DEMAND ~5.67GB DOWNLOAD

Orange Is the New Black (2013–)
59 min|Comedy, Crime, Drama|July 11, 2013
8.3Rating: 8.3 / 10 from 212,399 users
Convicted of a decade old crime of transporting drug money to an ex-girlfriend, normally law abiding Piper Chapman is sentenced to a year and a half behind bars to face the reality of how life changing prison can really be.
Orange is the New Black S03 BDRip x264 DEMAND ~5.67GB DOWNLOAD
Video
ID                                       : 1
Format                                   : AVC
Format/Info                              : Advanced Video Codec
Format profile                           : [email protected]
Format settings, CABAC                   : Yes
Format settings, ReFrames                : 5 frames
Codec ID                                 : V_MPEG4/ISO/AVC
Duration                                 : 1h 29mn
Bit rate                                 : 963 Kbps
Width                                    : 720 pixels
Height                                   : 404 pixels
Display aspect ratio                     : 16:9
Frame rate mode                          : Constant
Frame rate                               : 23.976 fps
Color space                              : YUV
Chroma subsampling                       : 4:2:0
Bit depth                                : 8 bits
Scan type                                : Progressive
Bits/(Pixel*Frame)                       : 0.138
Stream size                              : 616 MiB (90%)
Writing library                          : x264 core 148 r2692 64f4e24
qpmax=69 / qpstep=4 / ip_ratio=1.40 / aq=1:1.00
Language                                 : English
Default                                  : Yes
Forced                                   : No
Color range                              : Limited
Matrix coefficients                      : BT.709

Audio
ID                                       : 2
Format                                   : AAC
Format/Info                              : Advanced Audio Codec
Format profile                           : LC
Codec ID                                 : A_AAC
Duration                                 : 1h 29mn
Bit rate                                 : 108 Kbps
Channel(s)                               : 2 channels
Channel positions                        : Front: L R
Sampling rate                            : 48.0 KHz
Frame rate                               : 46.875 fps (1024 spf)
Compression mode                         : Lossy
Stream size                              : 68.8 MiB (10%)
Language                                 : English
Default                                  : Yes
Forced                                   : No