TV Series Pack Tv Show

Orange is the New Black S05 WEBRip x264 RARBG ~6.14GB DOWNLOAD

Orange Is the New Black (2013–)
59 min|Comedy, Crime, Drama|July 11, 2013
8.3Rating: 8.3 / 10 from 212,399 users
Convicted of a decade old crime of transporting drug money to an ex-girlfriend, normally law abiding Piper Chapman is sentenced to a year and a half behind bars to face the reality of how life changing prison can really be.
Orange is the New Black S05 WEBRip x264 RARBG ~6.14GB DOWNLOAD
Video
ID                                       : 1
Format                                   : AVC
Format/Info                              : Advanced Video Codec
Format profile                           : [email protected]
Format settings, CABAC                   : Yes
Format settings, ReFrames                : 5 frames
Codec ID                                 : avc1
Codec ID/Info                            : Advanced Video Coding
Duration                                 : 57mn 49s
Bit rate                                 : 1 100 Kbps
Width                                    : 720 pixels
Height                                   : 400 pixels
Display aspect ratio                     : 16:9
Frame rate mode                          : Constant
Frame rate                               : 23.976 (24000/1001) fps
Color space                              : YUV
Chroma subsampling                       : 4:2:0
Bit depth                                : 8 bits
Scan type                                : Progressive
Bits/(Pixel*Frame)                       : 0.159
Stream size                              : 442 MiB (89%)
Title                                    : RARBG.COM – Orange.is.the.New.Black.S05E07.WEBRip.x264-RARBG
Writing library                          : x264 core 148 r2597M e86f3a1
Language                                 : English
Encoded date                             : UTC 2017-06-09 14:41:32
Tagged date                              : UTC 2017-06-09 14:41:32

Audio
ID                                       : 2
Format                                   : AAC
Format/Info                              : Advanced Audio Codec
Format profile                           : LC
Codec ID                                 : 40
Duration                                 : 57mn 50s
Duration_LastFrame                       : -11ms
Bit rate mode                            : Constant
Bit rate                                 : 128 Kbps
Channel(s)                               : 2 channels
Channel positions                        : Front: L R
Sampling rate                            : 48.0 KHz
Frame rate                               : 46.875 fps (1024 spf)
Compression mode                         : Lossy
Stream size                              : 53.0 MiB (11%)
Title                                    : RARBG.COM – Orange.is.the.New.Black.S05E07.WEBRip.x264-RARBG
Language                                 : English
Default                                  : Yes