Bollywood Bollywood HDRip 1080p 720p

Phillauri (2017) 1080p UntoucheD WEB HD – AVC – AAC – Team IcTv ~5.39GB DOWNLOAD

Phillauri (2017)
138 min|Comedy, Drama, Fantasy, Romance|March 24, 2017
6.1Rating: 6.1 / 10 from 1,578 users
A man must marry a tree to ward off threats to his love-life, but the tree turns out to have more spirit than the man bargained for.
 
Phillauri (2017) 1080p UntoucheD WEB HD – AVC – AAC – Team IcTv ~5.39GB DOWNLOAD

Video
ID : 1
Format : AVC
Format/Info : Advanced Video Codec
Format profile : [email protected]
Format settings, CABAC : Yes
Format settings, ReFrames : 1 frame
Format settings, GOP : M=1, N=25
Codec ID : V_MPEG4/ISO/AVC
Duration : 2 h 10 min
Bit rate mode : Constant
Bit rate : 6 000 kb/s
Width : 1 920 pixels
Height : 1 080 pixels
Display aspect ratio : 16:9
Frame rate mode : Constant
Frame rate : 25.000 FPS
Color space : YUV
Chroma subsampling : 4:2:0
Bit depth : 8 bits
Scan type : Progressive
Bits/(Pixel*Frame) : 0.116
Stream size : 5.28 GiB (98%)
Default : Yes
Forced : No

Audio
ID : 2
Format : AAC
Format/Info : Advanced Audio Codec
Format profile : LC
Codec ID : A_AAC
Duration : 2 h 10 min
Bit rate : 125 kb/s
Channel(s) : 2 channels
Channel positions : Front: L R
Sampling rate : 48.0 kHz
Frame rate : 46.875 FPS (1024 spf)
Compression mode : Lossy
Stream size : 117 MiB (2%)
Default : Yes
Forced : No