Hollywood Hollywood 1CDRip Hollywood HDRip 1080p 720p

Power Rangers 2017 720p 2CH WEB-DL x265 HEVC 620MB DOWNLOAD

Power Rangers (2017)
124 min|Action, Adventure, Sci-Fi|March 24, 2017
6.8Rating: 6.8 / 10 from 28,496 users
A group of high-school students, who are infused with unique superpowers, harness their abilities in order to save the world.
Power Rangers 2017 720p 2CH WEB-DL x265 HEVC 620MB DOWNLOAD

Video
ID : 1
Format : HEVC
Format/Info : High Efficiency Video Coding
Format profile : [email protected]@Main
Codec ID : V_MPEGH/ISO/HEVC
Duration : 2 h 3 min
Bit rate : 636 kb/s
Width : 1 280 pixels
Height : 530 pixels
Display aspect ratio : 2.40:1
Original display aspect ratio : 2.40:1
Frame rate mode : Constant
Frame rate : 23.976 (24000/1001) FPS
Color space : YUV
Chroma subsampling : 4:2:0
Bit depth : 8 bits
Bits/(Pixel*Frame) : 0.039
Stream size : 564 MiB (91%)
Title : WWW.Extradesimovies.com

Default : Yes
Forced : No
Color range : Limited
Color primaries : BT.709
Transfer characteristics : BT.709
Matrix coefficients : BT.709

Audio
ID : 2
Format : AAC
Format/Info : Advanced Audio Codec
Format profile : HE-AAC / LC
Codec ID : A_AAC
Duration : 2 h 3 min
Bit rate : 62.8 kb/s
Channel(s) : 2 channels
Channel positions : Front: L R
Sampling rate : 48.0 kHz / 24.0 kHz
Frame rate : 23.438 FPS (1024 spf)
Compression mode : Lossy
Delay relative to video : 10 ms
Stream size : 55.7 MiB (9%)
Title : WWW.Extradesimovies.com
Default : Yes
Forced : No

Text
ID : 3
Format : UTF-8
Codec ID : S_TEXT/UTF8
Codec ID/Info : UTF-8 Plain Text
Duration : 15 min 3 s
Bit rate : 1 b/s
Count of elements : 3
Stream size : 185 Bytes (0%)
Title : WWW.Extradesimovies.com
Default : Yes
Forced : No