Hollywood Hollywood HDRip 1080p 720p

Power Rangers 2017 WEB-DL x264 FGT ~1GB DOWNLOAD

Power Rangers (2017)
124 min|Action, Adventure, Sci-Fi|March 24, 2017
6.8Rating: 6.8 / 10 from 28,496 users
A group of high-school students, who are infused with unique superpowers, harness their abilities in order to save the world.
Power.Rangers.2017.WEB-DL.x264-FGT
Power Rangers 2017 WEB-DL x264 FGT ~1GB DOWNLOAD
Video
ID                                       : 1
Format                                   : AVC
Format/Info                              : Advanced Video Codec
Format profile                           : [email protected]
Format settings, CABAC                   : Yes
Format settings, ReFrames                : 5 frames
Codec ID                                 : avc1
Codec ID/Info                            : Advanced Video Coding
Duration                                 : 2 h 3 min
Bit rate                                 : 1 100 kb/s
Width                                    : 720 pixels
Height                                   : 304 pixels
Display aspect ratio                     : 2.40:1
Original display aspect ratio            : 2.40:1
Frame rate mode                          : Constant
Frame rate                               : 23.976 (24000/1001) FPS
Color space                              : YUV
Chroma subsampling                       : 4:2:0
Bit depth                                : 8 bits
Scan type                                : Progressive
Bits/(Pixel*Frame)                       : 0.210
Stream size                              : 970 MiB (89%)
Title                                    : Power.Rangers.2017.WEB-DL.x264-FGT

Language                                 : English

Audio
ID                                       : 2
Format                                   : AAC
Format/Info                              : Advanced Audio Codec
Format profile                           : LC
Codec ID                                 : 40
Duration                                 : 2 h 3 min
Duration_LastFrame                       : 32 ms
Bit rate mode                            : Constant
Bit rate                                 : 128 kb/s
Channel(s)                               : 2 channels
Channel positions                        : Front: L R
Sampling rate                            : 48.0 kHz
Frame rate                               : 46.875 FPS (1024 spf)
Compression mode                         : Lossy
Stream size                              : 113 MiB (10%)
Title                                    : Power.Rangers.2017.WEB-DL.x264-FGT
Language                                 : English
Default                                  : Yes
Alternate group                          : 1