Bollwood Pre-Releases (Latest) Bollywood

RAABTA (2017) – 1CD – DesiPreDVD-Rip – Hindi – x264 – MP3 – Mafiaking – M2Tv ~700MB DOWNLOAD

Raabta (2017)
147 min|Comedy, Drama, Mystery, Romance|June 9, 2017
4.5Rating: 4.5 / 10 from 447 users
In 2017, Shiv and Saira fall for each other and form an inseparable connection. Until, Saira crosses paths with a reincarnated lover from a previous lifetime who is determined to make her his lover again.
RAABTA (2017) – 1CD – DesiPreDVD-Rip – Hindi – x264 – MP3 – Mafiaking – M2Tv ~700MB DOWNLOAD
General
Complete name : RAABTA (2017) – 1CD – DesiPreDVD-Rip – Hindi – x264 – MP3 – Mafiaking – M2Tv.mkv
Format : Matroska
Format version : Version 4 / Version 2
File size : 696 MiB
Duration : 1 h 54 min
Overall bit rate : 848 kb/sVideo
ID : 1
Format : AVC
Format/Info : Advanced Video Codec
Format profile : [email protected]
Format settings, CABAC : Yes
Format settings, ReFrames : 4 frames
Codec ID : V_MPEG4/ISO/AVC
Duration : 1 h 54 min
Bit rate : 750 kb/s
Width : 640 pixels
Height : 288 pixels
Display aspect ratio : 2.222
Frame rate mode : Constant
Frame rate : 29.970 (30000/1001) FPS
Color space : YUV
Chroma subsampling : 4:2:0
Bit depth : 8 bits
Scan type : Progressive
Bits/(Pixel*Frame) : 0.136
Stream size : 616 MiB (88%)
Title : Mafiaking
Language : Hindi
Default : Yes
Forced : NoAudio
ID : 2
Format : MPEG Audio
Format version : Version 1
Format profile : Layer 3
Mode : Joint stereo
Mode extension : MS Stereo
Codec ID : A_MPEG/L3
Codec ID/Hint : MP3
Duration : 1 h 54 min
Bit rate mode : Constant
Bit rate : 96.0 kb/s
Channel(s) : 2 channels
Sampling rate : 32.0 kHz
Frame rate : 27.778 FPS (1152 spf)
Compression mode : Lossy
Stream size : 78.8 MiB (11%)
Title : Mafiaking
Language : Hindi
Default : Yes