Bollywood 1CDRip

Sardar (1993) Hindi DVD RIP [Team EDM]~634MB

Sardar (1993)
175 min|Biography, Drama, History|N/A
7.9Rating: 7.9 / 10 from 497 users
An account of Vallbhbhai Patel's political life while India was taking first steps as an independent country.

Poster

General
Format                                   : Matroska
Format version                           : Version 4 / Version 2
File size                                : 634 MiB
Duration                                 : 2 h 38 min
Overall bit rate                         : 560 kb/s
Encoded date                             : UTC 2017-02-05 09:46:27
Writing application                      : mkvmerge v9.7.1 (‘Pandemonium’) 64bit
Writing library                          : libebml v1.3.4 + libmatroska v1.4.5

Video
ID                                       : 1
Format                                   : AVC
Format/Info                              : Advanced Video Codec
Format profile                           : [email protected]
Format settings, CABAC                   : Yes
Format settings, ReFrames                : 3 frames
Codec ID                                 : V_MPEG4/ISO/AVC
Duration                                 : 2 h 38 min
Bit rate                                 : 534 kb/s
Width                                    : 640 pixels
Height                                   : 480 pixels
Display aspect ratio                     : 4:3
Frame rate mode                          : Constant
Frame rate                               : 25.000 FPS
Color space                              : YUV
Chroma subsampling                       : 4:2:0
Bit depth                                : 8 bits
Scan type                                : Progressive
Bits/(Pixel*Frame)                       : 0.070
Stream size                              : 605 MiB (95%)
Default                                  : Yes
Forced                                   : No

Audio
ID                                       : 2
Format                                   : AAC
Format/Info                              : Advanced Audio Codec
Format profile                           : LC
Codec ID                                 : A_AAC
Duration                                 : 2 h 38 min
Bit rate                                 : 24.0 kb/s
Channel(s)                               : 1 channel
Channel positions                        : Front: C
Sampling rate                            : 22.05 kHz
Frame rate                               : 21.533 FPS (1024 spf)
Compression mode                         : Lossy
Stream size                              : 27.2 MiB (4%)
Default                                  : Yes
Forced                                   : No

To Join Our Whatsapp Group LINK

ss






d

BDupload

UploadMor

UsersCloud

Downace

ClicknUpload

Uptobox

Zag