Hollywood Hollywood BluRay 1080p 720p

The Adventures of Sharkboy and Lavagirl 3-D 2005 720p BluRay H264 AAC 1.12GB DOWNLOAD

The Adventures of Sharkboy and Lavagirl 3-D (2005)
93 min|Action, Adventure, Family, Fantasy|June 10, 2005
3.5Rating: 3.5 / 10 from 22,025 users
A young boy is recruited by his imaginary friends Sharkboy and Lavagirl to help save their planet.
Video
ID                                       : 1
Format                                   : AVC
Format/Info                              : Advanced Video Codec
Format profile                           : [email protected]
Format settings, CABAC                   : Yes
Format settings, ReFrames                : 4 frames
Codec ID                                 : avc1
Codec ID/Info                            : Advanced Video Coding
Duration                                 : 1 h 32 min
Bit rate                                 : 1 500 kb/s
Width                                    : 1 280 pixels
Height                                   : 720 pixels
Display aspect ratio                     : 16:9
Frame rate mode                          : Constant
Frame rate                               : 23.976 (23976/1000) FPS
Color space                              : YUV
Chroma subsampling                       : 4:2:0
Bit depth                                : 8 bits
Scan type                                : Progressive
Bits/(Pixel*Frame)                       : 0.068
Stream size                              : 993 MiB (87%)
Writing library                          : x264 core 148 r2597M e86f3a1
Audio
ID                                       : 2
Format                                   : AAC
Format/Info                              : Advanced Audio Codec
Format profile                           : LC
Codec ID                                 : 40
Duration                                 : 1 h 32 min
Bit rate mode                            : Constant
Bit rate                                 : 224 kb/s
Channel(s)                               : 2 channels
Channel(s)_Original                      : 6 channels
Channel positions                        : Front: L C R, Side: L R, LFE
Sampling rate                            : 48.0 kHz
Frame rate                               : 46.875 FPS (1024 spf)
Compression mode                         : Lossy
Stream size                              : 148 MiB (13%)
Language                                 : English
Default                                  : Yes
Alternate group                          : 1