Hindi Tv Show

The Bible 2013 S01E03 Dual Audio Hindi-Eng 720p-WEB-DL X264 [Team EDM]~757MB

Homeland (2013)
48 min|Documentary, Action, Drama, War|March 10, 2013
7.2Rating: 7.2 / 10 from 251 users
Joshua conquers Jericho; Delilah betrays Samson as the Israelites battle the Philistines; Samuel anoints David king, a move that could throw the nation into civil war; Saul is consumed with...

Poster

The Bible 2013 S01E03 Dual Audio Hindi-Eng 720p-WEB-DL X264 [Team EDM]

FIRST ON NET INDIAN DUBBED

General
Format                                   : Matroska
Format version                           : Version 4 / Version 2
File size                                : 729 MiB
Duration                                 : 45 min 14 s
Overall bit rate                         : 2 251 kb/s
Encoded date                             : UTC 2017-02-12 12:02:39
Writing application                      : mkvmerge v9.7.1 (‘Pandemonium’) 64bit
Writing library                          : libebml v1.3.4 + libmatroska v1.4.5 / Lavf55.33.100

Video
ID                                       : 1
Format                                   : AVC
Format/Info                              : Advanced Video Codec
Format profile                           : [email protected]
Format settings, CABAC                   : Yes
Format settings, ReFrames                : 4 frames
Codec ID                                 : V_MPEG4/ISO/AVC
Duration                                 : 45 min 14 s
Bit rate                                 : 2 000 kb/s
Width                                    : 1 280 pixels
Height                                   : 720 pixels
Display aspect ratio                     : 16:9
Frame rate mode                          : Constant
Frame rate                               : 25.000 FPS
Color space                              : YUV
Chroma subsampling                       : 4:2:0
Bit depth                                : 8 bits
Scan type                                : Progressive
Bits/(Pixel*Frame)                       : 0.087
Stream size                              : 637 MiB (87%)
Writing library                          : x264 core 132
Default                                  : Yes
Forced                                   : No

Audio #1
ID                                       : 2
Format                                   : AAC
Format/Info                              : Advanced Audio Codec
Format profile                           : LC
Codec ID                                 : A_AAC
Duration                                 : 45 min 14 s
Bit rate                                 : 151 kb/s
Channel(s)                               : 2 channels
Channel positions                        : Front: L R
Sampling rate                            : 44.1 kHz
Frame rate                               : 43.066 FPS (1024 spf)
Compression mode                         : Lossy
Stream size                              : 48.8 MiB (7%)
Language                                 : Hindi
Default                                  : Yes
Forced                                   : No

Audio #2
ID                                       : 3
Format                                   : MPEG Audio
Format version                           : Version 1
Format profile                           : Layer 3
Mode                                     : Joint stereo
Codec ID                                 : A_MPEG/L3
Codec ID/Hint                            : MP3
Duration                                 : 45 min 14 s
Bit rate mode                            : Constant
Bit rate                                 : 128 kb/s
Channel(s)                               : 2 channels
Sampling rate                            : 44.1 kHz
Frame rate                               : 38.281 FPS (1152 spf)
Compression mode                         : Lossy
Delay relative to video                  : -80 ms
Stream size                              : 41.4 MiB (6%)
Writing library                          : LAME3.98.2
Language                                 : English
Default                                  : No
Forced                                   : No

Take It Or Leave It
lip to lip Sync by TEAM-EDM
leave Only 1  Comment – I will Reply with more TEAM-EDM Exclusive Movies

Audio Source SHUBHAM-DESHMUKH Millions Thanks

To Join Our Whatsapp Group LINK

ss





d

SAMPLE


TORRENT


BDupload

Filescdn

UsersCloud

Downace

ClicknUpload

Uptobox

Zag