Hindi Tv Show

The Bible 2013 S01E04 Dual Audio Hindi-Eng 720p-WEB-DL X264 [Team EDM]~530MB

Kingdom (2013)
49 min|Documentary, Action, Drama, War|March 10, 2013
7.5Rating: 7.5 / 10 from 235 users
King Saul and the Israelite army face seemingly impossible odds against the Philistine army and their champion, Goliath. An unlikely here, the young David, defeats Goliath and goes on to ...

Poster

The Bible 2013 S01E04 Dual Audio Hindi-Eng 720p-WEB-DL X264 [Team EDM]

FIRST ON NET INDIAN DUBBED

General
Format                                   : Matroska
Format version                           : Version 4 / Version 2
File size                                : 529 MiB
Duration                                 : 40 min 51 s
Overall bit rate                         : 1 811 kb/s

Video
ID                                       : 2
Format                                   : AVC
Format/Info                              : Advanced Video Codec
Format profile                           : [email protected]
Format settings, CABAC                   : Yes
Format settings, ReFrames                : 5 frames
Codec ID                                 : V_MPEG4/ISO/AVC
Duration                                 : 40 min 51 s
Bit rate                                 : 1 549 kb/s
Width                                    : 720 pixels
Height                                   : 404 pixels
Display aspect ratio                     : 16:9
Frame rate mode                          : Constant
Frame rate                               : 25.000 FPS
Color space                              : YUV
Chroma subsampling                       : 4:2:0
Bit depth                                : 8 bits
Scan type                                : Progressive
Bits/(Pixel*Frame)                       : 0.213
Stream size                              : 453 MiB (86%)
Default                                  : Yes
Forced                                   : No
Color range                              : Limited
Matrix coefficients                      : BT.709

Audio #1
ID                                       : 1
Format                                   : AAC
Format/Info                              : Advanced Audio Codec
Format profile                           : LC
Codec ID                                 : A_AAC
Duration                                 : 40 min 51 s
Bit rate                                 : 132 kb/s
Channel(s)                               : 2 channels
Channel positions                        : Front: L R
Sampling rate                            : 48.0 kHz
Frame rate                               : 46.875 FPS (1024 spf)
Compression mode                         : Lossy
Delay relative to video                  : 11 ms
Stream size                              : 38.5 MiB (7%)
Language                                 : English
Default                                  : No
Forced                                   : No

Audio #2
ID                                       : 3
Format                                   : MPEG Audio
Format version                           : Version 1
Format profile                           : Layer 3
Mode                                     : Joint stereo
Mode extension                           : MS Stereo
Codec ID                                 : A_MPEG/L3
Codec ID/Hint                            : MP3
Duration                                 : 40 min 49 s
Bit rate mode                            : Constant
Bit rate                                 : 128 kb/s
Channel(s)                               : 2 channels
Sampling rate                            : 44.1 kHz
Frame rate                               : 38.281 FPS (1152 spf)
Compression mode                         : Lossy
Stream size                              : 37.4 MiB (7%)
Writing library                          : LAME3.98.2
Language                                 : Hindi
Default                                  : Yes
Forced                                   : Yes

Take It Or Leave It
lip to lip Sync by TEAM-EDM
leave Only 1  Comment – I will Reply with more TEAM-EDM Exclusive Movies

Audio Source SHUBHAM-DESHMUKH Millions Thanks

ss





d


TORRENT

GOOGLE DRIVE

BDupload

UploadRocket

UsersCloud

Downace

Filescdn

Uptobox

Zag

cft-facebook-group