Dual Audios Dual Audios HDRip 1080p 720p

The Fate of the Furious 2017 720p HDRip x264 [Hindi(Cleaned)-English] – Hon3y ~1.2GB DOWNLOAD

The Fate of the Furious (2017)
136 min|Action, Adventure, Crime, Thriller|April 14, 2017
7.1Rating: 7.1 / 10 from 89,085 users
When a mysterious woman seduces Dom into the world of terrorism and a betrayal of those closest to him, the crew face trials that will test them as never before.
 
The Fate of the Furious 2017 720p HDRip x264 [Hindi(Cleaned)-English] – Hon3y ~1.2GB DOWNLOAD
Format                      : Matroska
Format version              : Version 4 / Version 2
File size                   : 1.18 GiB
Duration                    : 2 h 15 min
Overall bit rate            : 1 238 kb/s
Movie name                  : Hon3yHD

Video
ID                          : 1
Format                      : AVC
Format/Info                 : Advanced Video Codec
Format profile              : [email protected]
Format settings, CABAC      : Yes
Format settings, ReFrames   : 12 frames
Codec ID                    : V_MPEG4/ISO/AVC
Duration                    : 2 h 15 min
Bit rate                    : 1 010 kb/s
Width                       : 1 280 pixels
Height                      : 532 pixels
Display aspect ratio        : 2.40:1
Frame rate mode             : Constant
Frame rate                  : 23.976 (24000/1001) FPS
Color space                 : YUV
Chroma subsampling          : 4:2:0
Bit depth                   : 8 bits
Scan type                   : Progressive
Bits/(Pixel*Frame)          : 0.062
Stream size                 : 982 MiB (82%)
Title                       : W3apoN-X…Hon3yHD

Hindi Audi Credits: KILLERBLAZE – Thank u bro

Cleaned & Synched by: W3apoN-X(R3al_Star)

Audio #1
ID                          : 2
Format                      : AAC
Format/Info                 : Advanced Audio Codec
Format profile              : LC
Codec ID                    : A_AAC
Duration                    : 2 h 15 min
Bit rate                    : 128 kb/s
Channel(s)                  : 2 channels
Channel positions           : Front: L R
Sampling rate               : 48.0 kHz
Frame rate                  : 46.875 FPS (1024 spf)
Compression mode            : Lossy
Delay relative to video     : 9 ms
Stream size                 : 124 MiB (10%)
Title                       : Hindi(Cleaned) AAC 2.0 128 Kbps—W3apoN-X…Hon3yHD
Language                    : Hindi

Audio #2
ID                          : 3
Format                      : AAC
Format/Info                 : Advanced Audio Codec
Format profile              : LC
Codec ID                    : A_AAC
Duration                    : 2 h 15 min
Bit rate                    : 96.0 kb/s
Channel(s)                  : 2 channels
Channel positions           : Front: L R
Sampling rate               : 48.0 kHz
Frame rate                  : 46.875 FPS (1024 spf)
Compression mode            : Lossy
Delay relative to video     : 9 ms
Stream size                 : 93.3 MiB (8%)
Title                       : English AAC 2.0 96 Kbps—W3apoN-X…Hon3yHD
Language                    : English