Hollywood Hollywood 1CDRip Hollywood BluRay 1080p 720p

The Girl on the Train (2016) 720p BRRip HEVC – [Team EDM] ~750MB

The Girl on the Train (2016)
112 min|Crime, Drama, Mystery, Thriller|October 7, 2016
6.5Rating: 6.5 / 10 from 104,444 users
A divorcee becomes entangled in a missing persons investigation that promises to send shockwaves throughout her life.
uOqKOhn.jpg
The Girl on the Train (2016) 720p BRRip HEVC – [Team EDM] ~750MB
Format : Matroska
Format version : Version 4 / Version 2
File size : 754 MiB
Duration : 1 h 52 min
Overall bit rate : 940 kb/s
Movie name : The.Girl.on.the.Train.2016.720p.BRRip.HEVC.750MB.MkvCage
Encoded date : UTC 2017-01-05 14:06:19
Writing application : mkvmerge v9.7.1 (‘Pandemonium’) 64bit
Writing library : libebml v1.3.4 + libmatroska v1.4.5

Video
ID : 2
Format : HEVC
Format/Info : High Efficiency Video Coding
Format profile : [email protected]@Main
Codec ID : V_MPEGH/ISO/HEVC
Duration : 1 h 52 min
Bit rate : 839 kb/s
Width : 1 280 pixels
Height : 692 pixels
Display aspect ratio : 1.85:1
Frame rate mode : Constant
Frame rate : 23.976 (24000/1001) FPS
Color space : YUV
Chroma subsampling : 4:2:0
Bit depth : 8 bits
Bits/(Pixel*Frame) : 0.039
Stream size : 672 MiB (89%)
Default : Yes
Forced : No
Color range : Limited
Color primaries : BT.709
Transfer characteristics : BT.709
Matrix coefficients : BT.709

Audio
ID : 1
Format : AAC
Format/Info : Advanced Audio Codec
Format profile : HE-AAC / LC
Codec ID : A_AAC
Duration : 1 h 52 min
Bit rate : 99.9 kb/s
Channel(s) : 2 channels
Channel positions : Front: L R
Sampling rate : 48.0 kHz / 24.0 kHz
Frame rate : 23.438 FPS (1024 spf)
Compression mode : Lossy
Delay relative to video : -52 ms
Stream size : 80.1 MiB (11%)
Language : English
Default : Yes
Forced : No

Text
ID : 3
Format : UTF-8
Codec ID : S_TEXT/UTF8
Codec ID/Info : UTF-8 Plain Text
Duration : 1 h 44 min
Bit rate : 48 b/s
Count of elements : 1334
Stream size : 37.1 KiB (0%)
Language : English
Default : Yes
Forced : No