Hindi Tv Show

The Path S01E07 Refugees Dual Audio Hindi-Eng1080p WEB-DL DD5.1 H.265 [Team EDM]~830MB

Refugees (2016)
47 min|Drama|May 4, 2016
8.7Rating: 8.7 / 10 from 223 users
After Cal's actions beckon a swarm of media attention to the compound, Sarah and the elders question his tactics. Cal discovers Eddie's secret relationship with Alison. Feeling his control slip away.

Poster

The Path S01E07 Refugees Dual Audio Hindi-Eng1080p WEB-DL DD5.1 H.265 [Team EDM]

General
Unique ID                                : 222401040922292204757755220937174077731 (0xA750E1E76CC4A413A23621E77D66D123)
Format                                   : Matroska
Format version                           : Version 4 / Version 2
File size                                : 830 MiB
Duration                                 : 53 min 35 s
Overall bit rate                         : 2 165 kb/s
Encoded date                             : UTC 2017-03-25 11:15:43 / UTC 2016-05-21T16:59:03Z
Writing application                      : mkvmerge v9.7.1 (‘Pandemonium’) 64bit
Writing library                          : libebml v1.3.4 + libmatroska v1.4.5 / Lavf55.12.0

Video
ID                                       : 1
Format                                   : HEVC
Format/Info                              : High Efficiency Video Coding
Format profile                           : [email protected]@Main
Codec ID                                 : V_MPEGH/ISO/HEVC
Duration                                 : 53 min 35 s
Bit rate                                 : 1 610 kb/s
Width                                    : 1 920 pixels
Height                                   : 1 080 pixels
Display aspect ratio                     : 16:9
Frame rate mode                          : Constant
Frame rate                               : 23.976 (24000/1001) FPS
Color space                              : YUV
Chroma subsampling                       : 4:2:0
Bit depth                                : 8 bits
Bits/(Pixel*Frame)                       : 0.032
Stream size                              : 617 MiB (74%)
Writing library                          : x265 1.9:[Windows][GCC 4.9.0][64 bit] 8bit
Encoding settings                        : wpp / ctu=32 / min-cu-size=16 / max-tu-size=32 / tu-intra-depth=1 / tu-inter-depth=1 / me=0 / subme=0 / merange=57 / no-rect / no-amp / max-merge=2 / temporal-mvp / early-skip / rdpenalty=0 / no-tskip / no-tskip-fast / strong-intra-smoothing / no-lossless / no-cu-lossless / no-constrained-intra / fast-intra / open-gop / no-temporal-layers / interlace=0 / keyint=240 / min-keyint=24 / scenecut=0 / rc-lookahead=5 / lookahead-slices=6 / bframes=3 / bframe-bias=0 / b-adapt=0 / ref=1 / limit-refs=0 / no-limit-modes / no-weightp / no-weightb / aq-mode=1 / qg-size=32 / aq-strength=0.00 / cbqpoffs=0 / crqpoffs=0 / rd=2 / psy-rd=2.00 / rdoq-level=0 / psy-rdoq=0.00 / no-signhide / deblock / no-sao / no-sao-non-deblock / b-pyramid / cutree / no-intra-refresh / rc=2 / pass / bitrate=1650 / qcomp=0.60 / qpmin=0 / qpmax=51 / qpstep=4 / cplxblur=20.0 / qblur=0.5 / ipratio=1.40 / pbratio=1.30
Default                                  : Yes
Forced                                   : No
Color range                              : Limited
Color primaries                          : BT.709
Transfer characteristics                 : BT.709
Matrix coefficients                      : BT.709
Statistics Tags Issue                    : mkvmerge v9.7.1 (‘Pandemonium’) 64bit 2017-03-25 11:15:43 / mkvmerge v9.7.1 (‘Pandemonium’) 64bit 2017-03-25 11:15:43 / UTC 2016-05-21T16:59:03Z
FromStats_BitRate                        : 1650793
FromStats_Duration                       : 00:53:35.087000000
FromStats_FrameCount                     : 77085
FromStats_StreamSize                     : 663430436

Audio #1
ID                                       : 2
Format                                   : AC-3
Format/Info                              : Audio Coding 3
Mode extension                           : CM (complete main)
Format settings, Endianness              : Big
Codec ID                                 : A_AC3
Duration                                 : 53 min 35 s
Bit rate mode                            : Constant
Bit rate                                 : 384 kb/s
Channel(s)                               : 6 channels
Channel positions                        : Front: L C R, Side: L R, LFE
Sampling rate                            : 48.0 kHz
Frame rate                               : 31.250 FPS (1536 spf)
Bit depth                                : 16 bits
Compression mode                         : Lossy
Stream size                              : 147 MiB (18%)
Title                                    : Surround
Language                                 : English
Default                                  : No
Forced                                   : No
Statistics Tags Issue                    : mkvmerge v9.7.1 (‘Pandemonium’) 64bit 2017-03-25 11:15:43 / mkvmerge v9.7.1 (‘Pandemonium’) 64bit 2017-03-25 11:15:43 / UTC 2016-05-21T16:59:03Z
FromStats_BitRate                        : 384000
FromStats_Duration                       : 00:53:35.072000000
FromStats_FrameCount                     : 100471
FromStats_StreamSize                     : 154323456

Audio #2
ID                                       : 4
Format                                   : MPEG Audio
Format version                           : Version 1
Format profile                           : Layer 3
Mode                                     : Joint stereo
Mode extension                           : MS Stereo
Codec ID                                 : A_MPEG/L3
Codec ID/Hint                            : MP3
Duration                                 : 53 min 35 s
Bit rate mode                            : Constant
Bit rate                                 : 128 kb/s
Channel(s)                               : 2 channels
Sampling rate                            : 44.1 kHz
Compression mode                         : Lossy
Delay relative to video                  : -83 ms
Stream size                              : 49.1 MiB (6%)
Writing library                          : LAME3.98.2
Language                                 : Hindi
Default                                  : Yes
Forced                                   : Yes
Statistics Tags Issue                    : mkvmerge v9.7.1 (‘Pandemonium’) 64bit 2017-03-25 11:15:43 / mkvmerge v9.7.1 (‘Pandemonium’) 64bit 2017-03-25 11:15:43 / UTC 2016-05-21T16:59:03Z
FromStats_BitRate                        : 128000
FromStats_Duration                       : 00:53:35.229000000
FromStats_FrameCount                     : 123083
FromStats_StreamSize                     : 51443670

Text
ID                                       : 3
Format                                   : ASS
Codec ID                                 : S_TEXT/ASS
Codec ID/Info                            : Advanced Sub Station Alpha
Compression mode                         : Lossless
Language                                 : English
Default                                  : No
Forced                                   : No
Statistics Tags Issue                    : mkvmerge v9.7.1 (‘Pandemonium’) 64bit 2017-03-25 11:15:43 / mkvmerge v9.7.1 (‘Pandemonium’) 64bit 2017-03-25 11:15:43 / UTC 2016-05-21T16:59:03Z
FromStats_BitRate                        : 144
FromStats_Duration                       : 00:52:48.668000000
FromStats_FrameCount                     : 1008
FromStats_StreamSize                     : 57187

Take It Or Leave It
Ahmed-Maher-Thanks
lip to lip Sync by TEAM-EDM
leave Only 1  Comment – I will Reply with more TEAM-EDM Exclusive Movies

Stay toon With Us For More Exclusive Release

Click On Image  Enlarge View




d

TORRENT LINK

GOOGLE DRIVE

BDupload

Clicknupload

1Fichier

Filecloud

Filescdn

Downace

Oboom

Openload

Uptobox

Uploading.site

Userscloud

Usersfiles

Tusfile

Turbobit

cft-facebook-group

About the author

q

5 Comments

Click here to post a comment