Dual Audios Other Indian Language Movies Tamil Telugu

Train to Busan [2016] 720p BluRay x264 Multi – Audio [Korean-English-Hindi-Tamil-Telugu][Org.DD5.1] – [Team EDM] ~ 3.2 GB

 
Dernier train pour Busan (2016)
118 min|Action, Drama, Horror, Thriller|August 17, 2016
7.5Rating: 7.5 / 10 from 60,500 users
While a zombie virus breaks out in South Korea, passengers struggle to survive on the train from Seoul to Busan.
 
Train to Busan [2016] 720p BluRay x264 Multi – Audio [Korean-English-Hindi-Tamil-Telugu][Org.DD5.1] – [Team EDM] ~ 3.2 GB
 Format                                   : Matroska
Format version                           : Version 4 / Version 2
File size                                : 3.20 GiB
Duration                                 : 1h 58mn
Overall bit rate                         : 3 882 Kbps
Movie name                               : Hon3yHDVideo
ID                                       : 1
Format                                   : AVC
Format/Info                              : Advanced Video Codec
Format profile                           : [email protected]
Format settings, CABAC                   : Yes
Format settings, ReFrames                : 6 frames
Codec ID                                 : V_MPEG4/ISO/AVC
Duration                                 : 1h 58mn
Bit rate                                 : 2 750 Kbps
Width                                    : 1 280 pixels
Height                                   : 696 pixels
Display aspect ratio                     : 1.85:1
Frame rate mode                          : Constant
Frame rate                               : 23.976 fps
Color space                              : YUV
Chroma subsampling                       : 4:2:0
Bit depth                                : 8 bits
Scan type                                : Progressive
Bits/(Pixel*Frame)                       : 0.129
Stream size                              : 2.22 GiB (69%)
Title                                    : W3apo-…Hon3yHD

Audio #1
ID                                       : 2
Format                                   : AC-3
Format/Info                              : Audio Coding 3
Mode extension                           : CM (complete main)
Format settings, Endianness              : Big
Codec ID                                 : A_AC3
Duration                                 : 1h 58mn
Bit rate mode                            : Constant
Bit rate                                 : 224 Kbps
Channel(s)                               : 6 channels
Channel positions                        : Front: L C R, Side: L R, LFE
Sampling rate                            : 48.0 KHz
Bit depth                                : 16 bits
Compression mode                         : Lossy
Stream size                              : 189 MiB (6%)
Title                                    : Korean DD5.1 224Kbps—W3apo-…Hon3yHD
Language                                 : Korean
Default                                  : No
Forced                                   : No

Audio #2
ID                                       : 3
Format                                   : AC-3
Format/Info                              : Audio Coding 3
Mode extension                           : CM (complete main)
Format settings, Endianness              : Big
Codec ID                                 : A_AC3
Duration                                 : 1h 58mn
Bit rate mode                            : Constant
Bit rate                                 : 224 Kbps
Channel(s)                               : 6 channels
Channel positions                        : Front: L C R, Side: L R, LFE
Sampling rate                            : 48.0 KHz
Bit depth                                : 16 bits
Compression mode                         : Lossy
Stream size                              : 189 MiB (6%)
Title                                    : English DD5.1 224Kbps—W3apo-…Hon3yHD
Language                                 : English
Default                                  : No
Forced                                   : No

Audio #3
ID                                       : 4
Format                                   : AC-3
Format/Info                              : Audio Coding 3
Mode extension                           : CM (complete main)
Format settings, Endianness              : Big
Codec ID                                 : A_AC3
Duration                                 : 1h 58mn
Bit rate mode                            : Constant
Bit rate                                 : 224 Kbps
Channel(s)                               : 6 channels
Channel positions                        : Front: L C R, Side: L R, LFE
Sampling rate                            : 48.0 KHz
Bit depth                                : 16 bits
Compression mode                         : Lossy
Stream size                              : 189 MiB (6%)
Title                                    : Hindi DD5.1 224Kbps—W3apo-…Hon3yHD
Language                                 : Hindi
Default                                  : Yes
Forced                                   : Yes

Audio #4
ID                                       : 5
Format                                   : AC-3
Format/Info                              : Audio Coding 3
Mode extension                           : CM (complete main)
Format settings, Endianness              : Big
Codec ID                                 : A_AC3
Duration                                 : 1h 58mn
Bit rate mode                            : Constant
Bit rate                                 : 224 Kbps
Channel(s)                               : 6 channels
Channel positions                        : Front: L C R, Side: L R, LFE
Sampling rate                            : 48.0 KHz
Bit depth                                : 16 bits
Compression mode                         : Lossy
Stream size                              : 189 MiB (6%)
Title                                    : Tamil DD5.1 224Kbps—W3apo-…Hon3yHD
Language                                 : Tamil
Default                                  : No
Forced                                   : No

Audio #5
ID                                       : 6
Format                                   : AC-3
Format/Info                              : Audio Coding 3
Mode extension                           : CM (complete main)
Format settings, Endianness              : Big
Codec ID                                 : A_AC3
Duration                                 : 1h 58mn
Bit rate mode                            : Constant
Bit rate                                 : 224 Kbps
Channel(s)                               : 6 channels
Channel positions                        : Front: L C R, Side: L R, LFE
Sampling rate                            : 48.0 KHz
Bit depth                                : 16 bits
Compression mode                         : Lossy
Stream size                              : 189 MiB (6%)
Title                                    : Telugu DD5.1 224Kbps—W3apo-…Hon3yHD
Language                                 : Telugu
Default                                  : No
Forced                                   : No

Text
ID                                       : 7
Format                                   : PGS
Muxing mode                              : zlib
Codec ID                                 : S_HDMV/PGS
Codec ID/Info                            : Picture based subtitle format used on BDs/HD-DVDs
Title                                    : English—W3apo-…Hon3yHD
Language                                 : English
Default                                  : No
Forced                                   : No

Menu
00:00:00.000                             : fr:Chapitre 01
00:11:02.536                             : fr:Chapitre 02
00:19:35.215                             : fr:Chapitre 03
00:29:38.318                             : fr:Chapitre 04
00:39:13.142                             : fr:Chapitre 05
00:51:01.850                             : fr:Chapitre 06
00:59:30.024                             : fr:Chapitre 07
01:08:15.091                             : fr:Chapitre 08
01:20:56.059                             : fr:Chapitre 09
01:29:58.267                             : fr:Chapitre 10
01:38:03.460                             : fr:Chapitre 11
01:49:07.207                             : fr:Chapitre 12