Dual Audios Dual Audios HDRip 1080p 720p Tamil Telugu

Train To Busan (2016)[1080p HDRip – Original Audios – DD 5.1 384Kbps – [Tamil + Telugu + Hindi + Eng + Kor] – x264 ESubs – [Team EDM] EXCLUSIVE ~3.9GB

 
Dernier train pour Busan (2016)
118 min|Action, Drama, Horror, Thriller|August 17, 2016
7.5Rating: 7.5 / 10 from 60,500 users
While a zombie virus breaks out in South Korea, passengers struggle to survive on the train from Seoul to Busan.
10fdec1fe26547efa3cf86326ba255cc.jpg
Train To Busan (2016)[1080p HDRip – Original Audios – DD 5.1 384Kbps – [Tamil + Telugu + Hindi + Eng + Kor] – x264 ESubs – [Team EDM] ~3.9GB
Format : Matroska
Format version : Version 4 / Version 2
File size : 3.91 GiB
Duration : 1 h 58 min
Overall bit rate : 4 748 kb/s
Movie name : Train To Busan (2016)[1080p HDRip – Original Audios – DD 5.1 384Kbps – [Tamil + Telugu + Hindi + Eng + Kor] – x264 ESubs
Encoded date : UTC 2016-11-30 14:54:00
Writing application : mkvmerge v9.5.0 (‘Quiet Fire’) 64bit
Writing library : libebml v1.3.4 + libmatroska v1.4.5Video
ID : 1
Format : AVC
Format/Info : Advanced Video Codec
Format profile : [email protected]
Format settings, CABAC : Yes
Format settings, ReFrames : 4 frames
Codec ID : V_MPEG4/ISO/AVC
Duration : 1 h 58 min
Bit rate : 3 017 kb/s
Width : 1 912 pixels
Height : 1 032 pixels
Display aspect ratio : 1.85:1
Frame rate mode : Constant
Frame rate : 29.970 (30000/1001) FPS
Color space : YUV
Chroma subsampling : 4:2:0
Bit depth : 8 bits
Scan type : Progressive
Bits/(Pixel*Frame) : 0.051
Stream size : 2.49 GiB (64%)
Title : Train To Busan (2016)[1080p HDRip – Original Audios – DD 5.1 384Kbps – [Tamil + Telugu + Hindi + Eng + Kor] – x264 ESubs
Language : English
Default : Yes
Forced : YesAudio #1
ID : 2
Format : AC-3
Format/Info : Audio Coding 3
Mode extension : CM (complete main)
Format settings, Endianness : Big
Codec ID : A_AC3
Duration : 1 h 58 min
Bit rate mode : Constant
Bit rate : 384 kb/s
Channel(s) : 6 channels
Channel positions : Front: L C R, Side: L R, LFE
Sampling rate : 44.1 kHz
Frame rate : 28.711 FPS (1536 spf)
Bit depth : 16 bits
Compression mode : Lossy
Stream size : 324 MiB (8%)
Title : Tamil
Language : Tamil
Default : Yes
Forced : NoAudio #2
ID : 3
Format : AC-3
Format/Info : Audio Coding 3
Mode extension : CM (complete main)
Format settings, Endianness : Big
Codec ID : A_AC3
Duration : 1 h 58 min
Bit rate mode : Constant
Bit rate : 384 kb/s
Channel(s) : 6 channels
Channel positions : Front: L C R, Side: L R, LFE
Sampling rate : 44.1 kHz
Frame rate : 28.711 FPS (1536 spf)
Bit depth : 16 bits
Compression mode : Lossy
Stream size : 324 MiB (8%)
Title : Telugu
Language : Telugu
Default : No
Forced : No

Audio #3
ID : 4
Format : AC-3
Format/Info : Audio Coding 3
Mode extension : CM (complete main)
Format settings, Endianness : Big
Codec ID : A_AC3
Duration : 1 h 58 min
Bit rate mode : Constant
Bit rate : 384 kb/s
Channel(s) : 6 channels
Channel positions : Front: L C R, Side: L R, LFE
Sampling rate : 44.1 kHz
Frame rate : 28.711 FPS (1536 spf)
Bit depth : 16 bits
Compression mode : Lossy
Stream size : 324 MiB (8%)
Title : English
Language : English
Default : No
Forced : No

Audio #4
ID : 5
Format : AC-3
Format/Info : Audio Coding 3
Mode extension : CM (complete main)
Format settings, Endianness : Big
Codec ID : A_AC3
Duration : 1 h 58 min
Bit rate mode : Constant
Bit rate : 384 kb/s
Channel(s) : 6 channels
Channel positions : Front: L C R, Side: L R, LFE
Sampling rate : 44.1 kHz
Frame rate : 28.711 FPS (1536 spf)
Bit depth : 16 bits
Compression mode : Lossy
Stream size : 324 MiB (8%)
Title : Hindi
Language : Hindi
Default : No
Forced : No

Audio #5
ID : 6
Format : AAC
Format/Info : Advanced Audio Codec
Format profile : LC
Codec ID : A_AAC
Duration : 1 h 58 min
Bit rate : 192 kb/s
Channel(s) : 2 channels
Channel positions : Front: L R
Sampling rate : 44.1 kHz
Frame rate : 43.066 FPS (1024 spf)
Compression mode : Lossy
Stream size : 162 MiB (4%)
Title : Korean
Language : Korean
Default : No
Forced : No

Text
ID : 7
Format : UTF-8
Codec ID : S_TEXT/UTF8
Codec ID/Info : UTF-8 Plain Text
Duration : 1 h 52 min
Bit rate : 24 b/s
Count of elements : 849
Stream size : 20.3 KiB (0%)
Title : English
Language : English
Default : No
Forced : No