Dual Audios Dual Audios HDRip 1080p 720p Tamil Telugu

Train To Busan (2016)720p HDRip Original Audios [Tamil + Telugu + Hindi + Eng + Kor] – x264 – [Team EDM] EXCLUSIVE – 1.2GB

 
Dernier train pour Busan (2016)
118 min|Action, Drama, Horror, Thriller|August 17, 2016
7.5Rating: 7.5 / 10 from 60,500 users
While a zombie virus breaks out in South Korea, passengers struggle to survive on the train from Seoul to Busan.
10fdec1fe26547efa3cf86326ba255cc.jpg
Train To Busan (2016)720p HDRip Original Audios  [Tamil + Telugu + Hindi + Eng + Kor] – x264 – [Team EDM] – 1.2GB
Format : Matroska
Format version : Version 4 / Version 2
File size : 1.30 GiB
Duration : 1 h 57 min
Overall bit rate mode : Variable
Overall bit rate : 1 575 kb/s
Movie name : Train To Busan (2016)720p HDRiP Multi Audio – [Tamil + Telugu + Hindi + Eng + Kor].mkv
Encoded date : UTC 2016-11-30 14:52:35
Writing application : mkvmerge v9.5.0 (‘Quiet Fire’) 64bit
Writing library : libebml v1.3.4 + libmatroska v1.4.5Video
ID : 1
Format : AVC
Format/Info : Advanced Video Codec
Format profile : [email protected]
Format settings, CABAC : Yes
Format settings, ReFrames : 8 frames
Codec ID : V_MPEG4/ISO/AVC
Duration : 1 h 57 min
Bit rate : 1 048 kb/s
Width : 1 280 pixels
Height : 688 pixels
Display aspect ratio : 1.85:1
Frame rate mode : Constant
Frame rate : 23.976 (24000/1001) FPS
Color space : YUV
Chroma subsampling : 4:2:0
Bit depth : 8 bits
Scan type : Progressive
Bits/(Pixel*Frame) : 0.050
Stream size : 884 MiB (67%)
Title : Train To Busan (2016)720p HDRiP Multi Audio – [Tamil + Telugu + Hindi + Eng + Kor]
Language : English
Default : Yes
Forced : YesAudio #1
ID : 2
Format : MPEG Audio
Format version : Version 1
Format profile : Layer 3
Mode : Joint stereo
Mode extension : MS Stereo
Codec ID : A_MPEG/L3
Codec ID/Hint : MP3
Duration : 1 h 57 min
Bit rate mode : Variable
Bit rate : 106 kb/s
Nominal bit rate : 128 kb/s
Channel(s) : 2 channels
Sampling rate : 44.1 kHz
Frame rate : 38.281 FPS (1152 spf)
Compression mode : Lossy
Stream size : 89.5 MiB (7%)
Title : Tamil
Writing library : LAME3.99r
Encoding settings : -m j -V 4 -q 3 -lowpass 17 –abr 128
Language : Tamil
Default : Yes
Forced : No

Audio #2
ID : 3
Format : MPEG Audio
Format version : Version 1
Format profile : Layer 3
Mode : Joint stereo
Mode extension : MS Stereo
Codec ID : A_MPEG/L3
Codec ID/Hint : MP3
Duration : 1 h 57 min
Bit rate mode : Variable
Bit rate : 106 kb/s
Nominal bit rate : 128 kb/s
Channel(s) : 2 channels
Sampling rate : 44.1 kHz
Frame rate : 38.281 FPS (1152 spf)
Compression mode : Lossy
Stream size : 89.4 MiB (7%)
Title : Telugu
Writing library : LAME3.99r
Encoding settings : -m j -V 4 -q 3 -lowpass 17 –abr 128
Language : Telugu
Default : No
Forced : No

Audio #3
ID : 4
Format : MPEG Audio
Format version : Version 1
Format profile : Layer 3
Mode : Joint stereo
Mode extension : MS Stereo
Codec ID : A_MPEG/L3
Codec ID/Hint : MP3
Duration : 1 h 57 min
Bit rate mode : Variable
Bit rate : 107 kb/s
Nominal bit rate : 128 kb/s
Channel(s) : 2 channels
Sampling rate : 44.1 kHz
Frame rate : 38.281 FPS (1152 spf)
Compression mode : Lossy
Stream size : 89.8 MiB (7%)
Title : Hindi
Writing library : LAME3.99r
Encoding settings : -m j -V 4 -q 3 -lowpass 17 –abr 128
Language : Hindi
Default : No
Forced : No

Audio #4
ID : 5
Format : MPEG Audio
Format version : Version 1
Format profile : Layer 3
Mode : Joint stereo
Mode extension : MS Stereo
Codec ID : A_MPEG/L3
Codec ID/Hint : MP3
Duration : 1 h 57 min
Bit rate mode : Variable
Bit rate : 107 kb/s
Nominal bit rate : 128 kb/s
Channel(s) : 2 channels
Sampling rate : 44.1 kHz
Frame rate : 38.281 FPS (1152 spf)
Compression mode : Lossy
Stream size : 90.4 MiB (7%)
Title : English
Writing library : LAME3.99r
Encoding settings : -m j -V 4 -q 3 -lowpass 17 –abr 128
Language : English
Default : No
Forced : No

Audio #5
ID : 6
Format : AAC
Format/Info : Advanced Audio Codec
Format profile : LC
Codec ID : A_AAC
Duration : 1 h 57 min
Bit rate : 96.0 kb/s
Channel(s) : 2 channels
Channel positions : Front: L R
Sampling rate : 44.1 kHz
Frame rate : 43.066 FPS (1024 spf)
Compression mode : Lossy
Stream size : 81.1 MiB (6%)
Title : Korean
Language : Korean
Default : No
Forced : No

Text
ID : 7
Format : UTF-8
Codec ID : S_TEXT/UTF8
Codec ID/Info : UTF-8 Plain Text
Duration : 1 h 51 min
Bit rate : 23 b/s
Count of elements : 813
Stream size : 19.2 KiB (0%)
Title : English
Language : English
Default : No
Forced : No