Bollywood 1CDRip

Welcome 2 Karachi (2015) 720p HDTVRip x264 AAC-Team-EDM~800MB

Welcome 2 Karachi (2015)
131 min|Adventure, Comedy, Crime, Thriller, War|May 28, 2015
4.4Rating: 4.4 / 10 from 741 users
Two men from India land in Karachi, Pakistan, without their passports. They get trapped by the Taliban and desperately try to find a way to get back to India.

10c498e0391769e4927934a455081af5.jpg

Format : Matroska
Format version : Version 4 / Version 2
File size : 797 MiB
Duration : 2 h 1 min
Overall bit rate : 915 kb/s
Encoded date : UTC 2017-02-05 03:25:22
Writing application : mkvmerge v9.5.0 (‘Quiet Fire’) 32bit
Writing library : libebml v1.3.4 + libmatroska v1.4.5

Video
ID : 1
Format : AVC
Format/Info : Advanced Video Codec
Format profile : [email protected]
Format settings, CABAC : Yes
Format settings, ReFrames : 4 frames
Codec ID : V_MPEG4/ISO/AVC
Duration : 2 h 1 min
Bit rate : 848 kb/s
Width : 1 280 pixels
Height : 544 pixels
Display aspect ratio : 2.35:1
Frame rate mode : Variable
Frame rate : 23.976 (24000/1001) FPS
Color space : YUV
Chroma subsampling : 4:2:0
Bit depth : 8 bits
Scan type : Progressive
Bits/(Pixel*Frame) : 0.051
Stream size : 739 MiB (93%)
Forced : No

Audio
ID : 2
Format : AAC
Format/Info : Advanced Audio Codec
Format profile : LC
Codec ID : A_AAC
Duration : 2 h 1 min
Bit rate : 64.0 kb/s
Channel(s) : 2 channels
Channel positions : Front: L R
Sampling rate : 44.1 kHz
Frame rate : 43.066 FPS (1024 spf)
Compression mode : Lossy
Delay relative to video : 21 ms
Stream size : 55.8 MiB (7%)
Language : Hindi
Default : Yes
Forced : No

To Join Our Whatsapp Group LINK

ss

61c62de1f6d84a3e7738943651b2b79b.md.png
f30cd96d42f48156005f2643a29aafec.md.png
23c0a30fd5f0b2169170ec7956beaa80.md.png
fdebae474b548fd91719737c65030e09.md.png
bc3a5c9b90f137108f84c206cf5a9ceb.md.png
c1fdadae54d846d7c8a9396a3ffa1302.md.png
36f0be8ac1cb80791e47798b7eeba8ee.md.png
602502c2714abefe3f69a3219db5a4b4.md.png
8a537e72b079bd9f1c05bb042b49105d.md.png
68268bb47907bc2cba08c63134517f47.md.png
0fdd362ed297780df0065ac9f5bb3ffa.md.png
9dc830e520051b73fefd5f64160b9285.md.png
0e0a55c337ae182fe8ff465b1f10f254.md.png

d

BDupload

OpenLoad

UsersCloud

ClicknUpload

Uptobox

Multiup

Zag