Hollywood Hollywood Pre-Releases (Latest)

Wonder Woman (2017) HDCAM x264 AAC { TaRa } 700 MB


===================================================================
General
Complete name               : Wonder Woman 2017 HDCM x264 AAC { TaRa }.mkv
Format                      : Matroska
Format version              : Version 4 / Version 2
File size                   : 759 MiB
Duration                    : 2h 10mn
Overall bit rate            : 812 Kbps
===================================================================
Video
ID                          : 1
Format                      : AVC
Format/Info                 : Advanced Video Codec
Format profile              : [email protected]
Format settings, CABAC      : Yes
Format settings, ReFrames   : 8 frames
Codec ID                    : V_MPEG4/ISO/AVC
Duration                    : 2h 10mn
Bit rate                    : 684 Kbps
Width                       : 640 pixels
Height                      : 272 pixels
Display aspect ratio        : 2.35:1
Frame rate mode             : Constant
Frame rate                  : 30.167 fps
Color space                 : YUV
Chroma subsampling          : 4:2:0
Bit depth                   : 8 bits
Scan type                   : Progressive
Bits/(Pixel*Frame)          : 0.130
Stream size                 : 639 MiB (84%)
Title                       : …..::::: TaRa :::::…..
Language                    : English
Default                     : Yes
Forced                      : No
===================================================================
Audio
ID                          : 2
Format                      : AAC
Format/Info                 : Advanced Audio Codec
Format profile              : LC
Codec ID                    : A_AAC
Duration                    : 2h 10mn
Bit rate                    : 126 Kbps
Channel(s)                  : 2 channels
Channel positions           : Front: L R
Sampling rate               : 44.1 KHz
Frame rate                  : 43.066 fps (1024 spf)
Compression mode            : Lossy
Stream size                 : 117 MiB (15%)
Title                       : …..::::: TaRa :::::…..
Language                    : English
Default                     : Yes
Forced                      : No
===================================================================

















:download:

Indishare

Bdupload

Clicknupload

Uptobox

Userscloud

Dailyupload

Uploadboy

DownAce

FileRio

UploadRocket